Сообщения без ответов | Активные темы Текущее время: 2024-07-17 22:04



Ответить на тему  [ 1 сообщение ] 
Топ Гир: Идеальное путешествие / Top Gear: The Perfect Road Trip (2013) BDRip (AlexFilm) 
Автор Сообщение
Релизер
Релизер
Раздал: 0 байт
Скачал: 0 байт
Ратио: Inf.


Зарегистрирован: 2013-10-07 15:27
Сообщения: 22378
Ответить с цитатой 




Топ Гир: Идеальное путешествие / Top Gear: The Perfect Road Trip (2013) BDRip (AlexFilm)

#777
Год выпуска: 2013
Страна: Великобритания
Телекомпания: BBC
Жанр: Телепередача

Перевод: Профессиональный двухголосый закадровый - AlexFilm

Режиссер: Фил Черчворд
Ведущие: Джереми Кларксон, Ричард Хаммонд, Стиг

Описание:
Джереми и Ричард Хаммонд расскажут, что, по их мнению, является «идеальным путешествием». Их цель в этом выпуске — это выбор лучшего вида транспорта для разных путешествий по Европе. Цель непростая — ведь выбор так велик. Ричард и Джереми прокатятся на 20 разных автомобилях, начиная от простых и удобных, заканчивая сложными и самыми дорогими в мире, таких как Bugatti, Lamborghini и многие другие.

СЭМПЛ

Продолжительность: 01:24:58
Качество видео: BDRip
Формат: AVI
Видео: 720x400 (16:9), 25 fps, XviD ~1600 kbps, ~0.222 bit/pixel
Аудио Rus: 48 kHz, MPEG Layer 3, 2 ch, 128 kbps CBR
Аудио Eng: 48 kHz, MPEG Layer 3, 2 ch, 128 kbps CBR

Релиз:
Озвучка: Роман Сопко, Александр Дасевич
Автор перевода: Константин Кривоногов
Общее
Top.Gear.The.Perfect.Road.Trip.2013.BDRip.Rus.Eng.AlexFilm.avi
Формат : AVI
Формат/Информация : Audio Video Interleave
Размер файла : 1,11 Гбайт
Продолжительность : 1 ч. 24 м.
Общий поток : 1870 Кбит/сек
Программа кодирования : VirtualDubModRus 1.5.10.2 (build 2542/release)
Библиотека кодирования : VirtualDubMod build 2542/release

Видео
Идентификатор : 0
Формат : MPEG-4 Visual
Профиль формата : Advanced Simple@L5
Параметр BVOP формата : 1
Параметр QPel формата : Нет
Параметр GMC формата : Без точки перехода
Параметр матрицы формата : Default (MPEG)
Идентификатор кодека : XVID
Идентификатор кодека/Подсказка : XviD
Продолжительность : 1 ч. 24 м.
Битрейт : 1600 Кбит/сек
Ширина : 720 пикселей
Высота : 400 пикселей
Соотношение сторон : 16:9
Частота кадров : 25,000 кадров/сек
Цветовое пространство : YUV
Субдискретизация насыщенности : 4:2:0
Битовая глубина : 8 бит
Тип развёртки : Прогрессивная
Метод сжатия : С потерями
Бит/(Пиксели*Кадры) : 0.222
Размер потока : 972 Мбайт (86%)
Библиотека кодирования : XviD 1.2.1 (UTC 2008-12-04)

Аудио #1
Идентификатор : 1
Формат : MPEG Audio
Версия формата : Version 1
Профиль формата : Layer 3
Режим : Joint stereo
Идентификатор кодека : 55
Идентификатор кодека/Подсказка : MP3
Продолжительность : 1 ч. 24 м.
Вид битрейта : Постоянный
Битрейт : 128 Кбит/сек
Каналы : 2 канала
Частота : 48,0 КГц
Метод сжатия : С потерями
Размер потока : 77,7 Мбайт (7%)
Выравнивание : Соединение по промежуткам
Продолжительность промежутка : 40 мс. (1,00 видеокадр)
Время предзагрузки промежутка : 504 мс.

Аудио #2
Идентификатор : 2
Формат : MPEG Audio
Версия формата : Version 1
Профиль формата : Layer 3
Режим : Joint stereo
Идентификатор кодека : 55
Идентификатор кодека/Подсказка : MP3
Продолжительность : 1 ч. 24 м.
Вид битрейта : Постоянный
Битрейт : 128 Кбит/сек
Каналы : 2 канала
Частота : 48,0 КГц
Метод сжатия : С потерями
Размер потока : 77,7 Мбайт (7%)
Выравнивание : Соединение по промежуткам
Продолжительность промежутка : 40 мс. (1,00 видеокадр)
Время предзагрузки промежутка : 504 мс.




Время раздачи: 24/7


2013-12-15 23:43
Профиль
  • Торрент
Автор: Arhangel Хэш: ---
Добавлен: 2013-12-15 23:39 Приватный: Нет (DHT включён)
Статус:
---
Размер: 1.11 ГБ (1 191 723 008 байт)
Изменил:
---
Скачали: 0 (Раздающих: 0%)
Причина:
---
Здоровье: ???%
Сидеров: 0 Личеров: 1
Скорость раздачи: 0 байт/сек Скорость скачивания: 0 байт/сек
Последний сидер: Нет Последний личер: 10 дней 7 часов 4 секунды назад
Для скачивания торрента необходимо зарегистрироваться или войти на трекер.
Показать сообщения за:  Поле сортировки  
Ответить на тему   [ 1 сообщение ] 

Кто сейчас на конференции

Сейчас этот форум просматривают: нет зарегистрированных пользователей и гости: 1


Вы не можете начинать темы
Вы не можете отвечать на сообщения
Вы не можете редактировать свои сообщения
Вы не можете удалять свои сообщения
Вы не можете добавлять вложения

Найти:
Перейти:  
Создано на основе phpBB® Forum Software © phpBB Group
ppkBB3cker v.2.5 © 2008-2021 @ PPK | Icon Theme by Everaldo.com Design Studio
Designed by ST Software.
Русская поддержка phpBB
[ Time : 0.786s | 18 Queries | GZIP : Off ]
Ресурс не предоставляет электронные версии произведений, а занимается лишь коллекционированием и каталогизацией ссылок, присылаемых и публикуемых на форуме нашими читателями. Если вы являетесь правообладателем какого-либо представленного материала и не желаете чтобы ссылка на него находилась в нашем каталоге, свяжитесь с нами и мы незамедлительно удалим её. Файлы для обмена на трекере предоставлены пользователями сайта, и администрация не несёт ответственности за их содержание. Просьба не заливать файлы, защищенные авторскими правами, а также файлы нелегального содержания!
tracker_cron Яндекс.Метрика