Сообщения без ответов | Активные темы Текущее время: 2024-06-22 14:52



Ответить на тему  [ 1 сообщение ] 
Top Gear / Топ Гир / Сезон: 21 / Серии: 1 / BBC [2014, Великобритания, Телевизионное авто-шоу, HDTV, 1080i, EN] 
Автор Сообщение
Релизер
Релизер
Раздал: 157 ГБ
Скачал: 4 ГБ
Ратио: 39.250


Зарегистрирован: 2013-08-21 19:15
Сообщения: 48352
Ответить с цитатой 
Top Gear / Топ Гир / Сезон: 21

#777
Страна: Великобритания
Режиссер: Энди Уилман
Жанр: Телевизионное авто-шоу

Год выпуска: 2014
Продолжительность: ~1 час
Перевод: Отсутствует
Cубтитры: русские

Описание: Aвто-шоу «Top Gear» — это программа абсолютно новой формации для телезрителей прогрессивного толка. В ней нет ни слова о недорогих семейных автомобилях, нет занудных советов автолюбителям, да и банального cлова «автолюбитель» в ней тоже нет.

Это программа для настоящих фанатов роскошных, безумно дорогих и самых быстрых автомобилей, для настоящих ценителей запаха бензина и пылающих тормозных дисков, для тех, кому не безразличен экстремальный драйв.

Эксперты программы, профессионалы высочайшего класса, способны вынести справедливый вердикт любому сверхсовременному спорткару.


Качество видео: HDTV
Формат видео: TS
Видео: MPEG-4 AVC, 1920x1080, 25 fps, ~7 Mbps
Аудио: AC3, 48 kHz, 2 ch, ~192 kbps avg


● Ребята покупают три горячих хэтчбека из 1980-ых и им нужно доказать, что они лучше, чем современные версии.
● Знаменитость в бюджетном авто:актер Хью Бонневилль.

Доп. информация: Автор - lulz



Код:
General #1
    ID : 1 (0x1)
    Complete name : Top.Gear.S21.1080i.HDTV.DD2.0.H.264\Top.Gear.S21E01.1080i.HDTV.DD2.0.H.264.ts
    Format : MPEG-TS
    File size : 3.17 GiB
    Duration : 1h 1mn
    Overall bit rate mode : Variable
    Overall bit rate : 7 331 Kbps
  Video #5500
    ID : 5500 (0x157C)
    Menu ID : 1 (0x1)
    Format : AVC
    Format/Info : Advanced Video Codec
    Format profile : High@L4.0
    Format settings, CABAC : Yes
    Format settings, ReFrames : 4 frames
    Codec ID : 27
    Duration : 1h 1mn
    Bit rate : 6 775 Kbps
    Width : 1 920 pixels
    Height : 1 080 pixels
    Display aspect ratio : 16:9
    Frame rate : 25.000 fps
    Standard : Component
    Color space : YUV
    Chroma subsampling : 4:2:0
    Bit depth : 8 bits
    Scan type : MBAFF
    Bits/(Pixel*Frame) : 0.131
    Stream size : 2.93 GiB (92%)
    Color primaries : BT.709
    Transfer characteristics : BT.709
    Matrix coefficients : BT.709
  Audio #5501
    ID : 5501 (0x157D)
    Menu ID : 1 (0x1)
    Format : AC-3
    Format/Info : Audio Coding 3
    Mode extension : CM (complete main)
    Format settings, Endianness : Big
    Codec ID : 6
    Duration : 1h 1mn
    Bit rate mode : Constant
    Bit rate : 192 Kbps
    Channel(s) : 2 channels
    Channel positions : Front: L R
    Sampling rate : 48.0 KHz
    Bit depth : 16 bits
    Compression mode : Lossy
    Stream size : 85.1 MiB (3%)
    Language : English
  Text #5504
    ID : 5504 (0x1580)
    Menu ID : 1 (0x1)
    Format : DVB Subtitle
    Codec ID : 6
    Duration : 1h 1mn
    Delay relative to video : 898ms
    Language : English






2014-02-04 15:09
Профиль
  • Торрент
Автор: virus Хэш: ---
Добавлен: 2014-02-04 15:03 Приватный: Нет (DHT включён)
Статус:
---
Размер: 3.17 ГБ (3 408 992 438 байт)
Изменил:
---
Скачали: 0 (Раздающих: 0%)
Причина:
---
Здоровье: 0%
Сидеров: 0 Личеров: 0
Скорость раздачи: 0 байт/сек Скорость скачивания: 0 байт/сек
Последний сидер: Нет Последний личер: Нет
Для скачивания торрента необходимо зарегистрироваться или войти на трекер.
Показать сообщения за:  Поле сортировки  
Ответить на тему   [ 1 сообщение ] 

Кто сейчас на конференции

Сейчас этот форум просматривают: нет зарегистрированных пользователей и гости: 3


Вы не можете начинать темы
Вы не можете отвечать на сообщения
Вы не можете редактировать свои сообщения
Вы не можете удалять свои сообщения
Вы не можете добавлять вложения

Найти:
Перейти:  
cron
Создано на основе phpBB® Forum Software © phpBB Group
ppkBB3cker v.2.5 © 2008-2021 @ PPK | Icon Theme by Everaldo.com Design Studio
Designed by ST Software.
Русская поддержка phpBB
[ Time : 0.480s | 18 Queries | GZIP : Off ]
Ресурс не предоставляет электронные версии произведений, а занимается лишь коллекционированием и каталогизацией ссылок, присылаемых и публикуемых на форуме нашими читателями. Если вы являетесь правообладателем какого-либо представленного материала и не желаете чтобы ссылка на него находилась в нашем каталоге, свяжитесь с нами и мы незамедлительно удалим её. Файлы для обмена на трекере предоставлены пользователями сайта, и администрация не несёт ответственности за их содержание. Просьба не заливать файлы, защищенные авторскими правами, а также файлы нелегального содержания!
tracker_cron Яндекс.Метрика