Сообщения без ответов | Активные темы Текущее время: 2024-07-14 19:36



Ответить на тему  [ 1 сообщение ] 
(Jazz Vocal, Gospel, Ethno-Jazz) Iris and Ofer Portugaly - Collection - 6 альбомов - 1995-2017, FLAC (tracks+.cue), lossless 
Автор Сообщение
Почетный пользователь
Почетный пользователь
Аватара пользователя
Раздал: 4.22 ТБ
Скачал: 108.08 ГБ
Ратио: 1047.464


Зарегистрирован: 2015-11-23 20:42
Сообщения: 149
Откуда: Калининград
Ответить с цитатой 
Iris and Ofer Portugaly - Collection - 6 альбомов - 1995-2017



6 альбомов известной в Израиле и продуктивной супружеской пары. В ранних альбомах они начинали с поп-джаза, но постепенно стали более серьезными и изысканными
Страна исполнителя: Israel
Жанр: Jazz Vocal, Gospel, Ethno-Jazz || Аудио кодек: FLAC || Тип рипа: (tracks .cue) || Битрейт аудио: lossless || Включает: Full artwork || Общая длительность: 6:10:19 || Источник: Моя коллекция / Stream (указано поальбомно)

#777
Жанр: Fusion, Vocal Jazz
Носитель: STREAM
Год издания оригинала: 1995
Издатель (лейбл): Hataklit
Страна исполнителя (группы): Israel
Дата / место записи:
Аудио кодек: FLAC (*.flac)
Тип рипа: (tracks)
Наличие сканов в содержимом раздачи: front
Источник (Дистрибьютор): Deezer
Трэклист:
1. ש י ר ק ד מ ש נ ת י = Another Sex - 5:16
2. א ו ר ח ה ב מ ד ב ר = Desert Convoy - 4:01
3. ח מ י ש ה ר ב ע י ם = Five Four - 5:21
4. כ מ ו ע צ י ה פ ק א ן = Like The Nut Trees - 3:12
5. ג' א ז ב א י ל ת = Jazz In Eilat - 3:17
6. ש י ש י ב צ ה ר י י ם = Friday Afternoon - 6:12
7. ב ת ו ך נ י י ר ע י ת ו ן = In The Paper - 5:44
8. ע ד ן = Eden - 4:40
9. ש י ר ק ד מ ש נ ת י ( ס ק ס א ח ר) - ר מ י ק ס א י נ ס ט ר ו מ נ ט ל י = Another Sex (instrumental Remix) - 2:56
10. א ת ה ל א י ו ד ע מ ה ז א ת א ה ב ה = You Don't Know What Love Is - 6:08
11. ג ו ף ו נ פ ש = Body & Soul - 7:09



-----------------------
DON'T MODIFY THIS FILE
-----------------------
PERFORMER: auCDtect Task Manager, ver. 1.6.0 RC1 build 1.6.0.1
Copyright (c) 2008-2010 y-soft. All rights reserved
http://y-soft.org
ANALYZER: auCDtect: CD records authenticity detector, version 0.8.2
Copyright (c) 2004 Oleg Berngardt. All rights reserved.
Copyright (c) 2004 Alexander Djourik. All rights reserved.
FILE: 11 ג ו ף ו נ פ ש.flac
Size: 28598251 Hash: 2FB1F7F64F81218A81B51B7F17A4554A Accuracy: -m0
Conclusion: MPEG 91%
Signature: C293C239FB74564165FE1664EB6BEFC760B53A25
FILE: 10 א ת ה ל א י ו ד ע מ ה ז א ת א ה ב ה.flac
Size: 26123252 Hash: DD28E60140D0FE8457B3AA752DF53178 Accuracy: -m0
Conclusion: CDDA 100%
Signature: 7EAC631DFE9255276362BDF826741798D632A829
FILE: 09 ש י ר ק ד מ ש נ ת י ( ס ק ס א ח ר) - ר מ י ק ס א י נ ס ט ר ו מ נ ט ל י.flac
Size: 21284285 Hash: 5C678BDC595AB5B802A5A933E99B6345 Accuracy: -m0
Conclusion: CDDA 100%
Signature: 15273FF81AA10D101A19DE9BFBE3EBDE1D236B37
FILE: 08 ע ד ן.flac
Size: 30729297 Hash: B41AA8C1DB323CBA0A1A845926F5F91E Accuracy: -m0
Conclusion: CDDA 100%
Signature: EAF238EBC7862C207DB99FDDD16208B56BB55807
FILE: 07 ב ת ו ך נ י י ר ע י ת ו ן.flac
Size: 40539645 Hash: E11AE8191769966060D78328664B2210 Accuracy: -m0
Conclusion: CDDA 100%
Signature: EECBB08EE81C9C2C465FF1CA5249B30547A65E05
FILE: 06 ש י ש י ב צ ה ר י י ם.flac
Size: 40198228 Hash: BB3D146D30F221451C71AB223133080F Accuracy: -m0
Conclusion: ???
Signature: 5A20F3974811248BF14E31F8E6A5EDCCAAC25A82
FILE: 05 ג' א ז ב א י ל ת.flac
Size: 21683149 Hash: 550271718905B3D2B1F3FF72F8537264 Accuracy: -m0
Conclusion: CDDA 100%
Signature: 0737BF8E13D4F08E0651A2E648B4AF2236765A20
FILE: 04 כ מ ו ע צ י ה פ ק א ן.flac
Size: 18036794 Hash: 826C9D38140FED459167C63DF0EBB60E Accuracy: -m0
Conclusion: CDDA 42%
Signature: 753FF1B40ABB42E216363109A78F02DB47010735
FILE: 03 ח מ י ש ה ר ב ע י ם.flac
Size: 37356858 Hash: E3A59240E5B845A237F7DECE869971E8 Accuracy: -m0
Conclusion: CDDA 100%
Signature: FEEAEC4AC87452D17966998B5FA71A5D770830D5
FILE: 02 א ו ר ח ה ב מ ד ב ר.flac
Size: 25127117 Hash: 22ECA4344628E4366F3638AF947C958E Accuracy: -m0
Conclusion: MPEG 93%
Signature: 425038FF16E56A02185FE4FEBB7B6351CB3724B1
FILE: 01 ש י ר ק ד מ ש נ ת י.flac
Size: 36819586 Hash: 02FDC501EC44FF553DE680C84CEA3218 Accuracy: -m0
Conclusion: CDDA 100%
Signature: CEFA31927C64AB074FE5792022DEE4305CA71BC0

[center]


foobar2000 1.5.5 / Dynamic Range Meter 1.1.1
log date: 2020-12-18 11:20:48
--------------------------------------------------------------------------------
Analyzed: Iris & Ofer Portugaly / ע ד ן
--------------------------------------------------------------------------------
DR Peak RMS Duration Track
--------------------------------------------------------------------------------
DR15 0.00 dB -17.73 dB 5:17 01- ש י ר ק ד מ ש נ ת י
DR13 -1.98 dB -18.93 dB 4:01 02- א ו ר ח ה ב מ ד ב ר
DR14 0.00 dB -17.71 dB 5:22 03- ח מ י ש ה ר ב ע י ם
DR11 -1.94 dB -17.40 dB 3:13 04- כ מ ו ע צ י ה פ ק א ן
DR13 0.00 dB -14.48 dB 3:17 05- ג' א ז ב א י ל ת
DR15 0.00 dB -19.15 dB 6:12 06- ש י ש י ב צ ה ר י י ם
DR13 0.00 dB -16.46 dB 5:44 07- ב ת ו ך נ י י ר ע י ת ו ן
DR13 -0.09 dB -16.77 dB 4:40 08- ע ד ן
DR14 -0.12 dB -16.89 dB 2:56 09- ש י ר ק ד מ ש נ ת י ( ס ק ס א ח ר) - ר מ י ק ס א י נ ס ט ר ו מ נ ט ל י
DR13 -0.32 dB -17.10 dB 6:08 10- א ת ה ל א י ו ד ע מ ה ז א ת א ה ב ה
DR15 -1.24 dB -21.01 dB 7:09 11- ג ו ף ו נ פ ש
--------------------------------------------------------------------------------
Number of tracks: 11
Official DR value: DR14
Samplerate: 44100 Hz
Channels: 2
Bits per sample: 16
Bitrate: 525 kbps
Codec: FLAC
================================================================================




Acoustic Bass – Christian Diener (tracks: 6)
Bass – Amitai Pariente
Bongos – Doron Raphaeli (tracks: 8)
Guitar – David Matarasso
Percussion – Zohar Fresco (tracks: 2)
Piano, Keyboards, Vocals, Producer, Arranged By – Ofer Portugaly
Saxophone – Eli Degibri, Ole Mathisen (tracks: 6)
Saxophone, Guitar – Eli Benacot (tracks: 5)
Trumpet – Avishai E. Cohen
Vocals, Drums – Iris Portugaly

#777
Жанр: Vocal Jazz
Носитель: CD
Страна-производитель диска (релиза): Israel
Год издания оригинала: 1998
Издатель (лейбл): HaTaklit
Номер по каталогу: 9296-2
Дата / место записи: At "Brosh" Studious By Gal Navon
Трэклист:
1. Before You Told Me - 4:25 - ל פ נ י ש א מ ר ת
2. Games Of Shadows And Light - 4:41 - מ ש ק י ם ש ל א ו ר ו צ ל
3. Only With Her - 5:22 - ר ק א ת ה
4. Sea Journey - 6:45 - ע נ ה ל י
5. Blind Date - 4:53 - פ ג י ש ה א ו ו ר י ת
6. Goodbye My Dear - 3:43 - ש ל ו ם ל ך א י ש ש ל י
7. I'm Still Here - 4:05 - א נ י פ ה ע ד י י ן
8. Three - 2:51 - ש ל י ש ה
9. Tell Me a Bedtime Story - 4:32
10. A Foggy Day In Eilat Town - 3:16 - ש מ י י ם ו א ו ר ב ה י ר ב א י ל ת
11. Somebody Loves You - 2:57 - מ ש ה ו א א ו ה ב א ו ת ך[align=center]
[img]http://%20СПАМ
[img]http://www.exactaudiocopy.de/en/wp-content/uploads/2007/03/accuraterip.gif[/img]



Exact Audio Copy V1.3 from 2. September 2016
EAC extraction logfile from 6. January 2019, 19:06
Iris & Ofer Portugaly / Before You Told Me
Used drive : HL-DT-STDVDRAM GH24NSB0 Adapter: 1 ID: 0
Read mode : Secure
Utilize accurate stream : Yes
Defeat audio cache : Yes
Make use of C2 pointers : No
Read offset correction : 6
Overread into Lead-In and Lead-Out : No
Fill up missing offset samples with silence : Yes
Delete leading and trailing silent blocks : No
Null samples used in CRC calculations : Yes
Used interface : Native Win32 interface for Win NT & 2000
Gap handling : Appended to previous track
Used output format : User Defined Encoder
Selected bitrate : 1024 kBit/s
Quality : High
Add ID3 tag : No
Command line compressor : C:\Program Files (x86)\Exact Audio Copy\FLAC\FLAC.EXE
Additional command line options : -V -8 -T "Genre=%genre%" -T "Artist=%artist%" -T "Title=%title%" -T "Album=%albumtitle%" -T "Date=%year%" -T "Tracknumber=%tracknr%" -T "Comment=%comment%" %source%
TOC of the extracted CD
Track | Start | Length | Start sector | End sector
---------------------------------------------------------
1 | 0:00.00 | 4:25.51 | 0 | 19925
2 | 4:25.51 | 4:41.49 | 19926 | 41049
3 | 9:07.25 | 5:22.10 | 41050 | 65209
4 | 14:29.35 | 6:45.48 | 65210 | 95632
5 | 21:15.08 | 4:52.69 | 95633 | 117601
6 | 26:08.02 | 3:43.34 | 117602 | 134360
7 | 29:51.36 | 4:05.35 | 134361 | 152770
8 | 33:56.71 | 2:48.16 | 152771 | 165386
9 | 36:45.12 | 4:31.48 | 165387 | 185759
10 | 41:16.60 | 3:16.48 | 185760 | 200507
11 | 44:33.33 | 2:57.38 | 200508 | 213820
Track 1
Filename D:\Music\MG rips\Iris & Ofer Portugaly - Before You Told Me - 1998 (HaTaklit 9296-2) [FLAC]\01 - Before You Told Me.wav
Pre-gap length 0:00:02.00
Peak level 98.8 %
Extraction speed 1.0 X
Track quality 100.0 %
Test CRC 57371A48
Copy CRC 57371A48
Accurately ripped (confidence 1) [93BADAF5] (AR v2)
Copy OK
Track 2
Filename D:\Music\MG rips\Iris & Ofer Portugaly - Before You Told Me - 1998 (HaTaklit 9296-2) [FLAC]\02 - Games Of Shadows And Light.wav
Peak level 98.8 %
Extraction speed 1.2 X
Track quality 100.0 %
Test CRC 11924864
Copy CRC 11924864
Accurately ripped (confidence 1) [8F9DE157] (AR v2)
Copy OK
Track 3
Filename D:\Music\MG rips\Iris & Ofer Portugaly - Before You Told Me - 1998 (HaTaklit 9296-2) [FLAC]\03 - Only Woth Her.wav
Peak level 98.8 %
Extraction speed 1.3 X
Track quality 100.0 %
Test CRC 5DB4437D
Copy CRC 5DB4437D
Accurately ripped (confidence 1) [D0E7BB1B] (AR v2)
Copy OK
Track 4
Filename D:\Music\MG rips\Iris & Ofer Portugaly - Before You Told Me - 1998 (HaTaklit 9296-2) [FLAC]\04 - Sea Journey.wav
Peak level 98.8 %
Extraction speed 1.5 X
Track quality 100.0 %
Test CRC D0C1E5C5
Copy CRC D0C1E5C5
Accurately ripped (confidence 1) [C7D56368] (AR v2)
Copy OK
Track 5
Filename D:\Music\MG rips\Iris & Ofer Portugaly - Before You Told Me - 1998 (HaTaklit 9296-2) [FLAC]\05 - Blind Date.wav
Peak level 98.8 %
Extraction speed 1.6 X
Track quality 100.0 %
Test CRC 2BA9D9F7
Copy CRC 2BA9D9F7
Accurately ripped (confidence 1) [16884A03] (AR v2)
Copy OK
Track 6
Filename D:\Music\MG rips\Iris & Ofer Portugaly - Before You Told Me - 1998 (HaTaklit 9296-2) [FLAC]\06 - Goodbye My Dear.wav
Pre-gap length 0:00:01.61
Peak level 98.8 %
Extraction speed 1.4 X
Track quality 99.9 %
Test CRC 9BC2D0B1
Copy CRC 9BC2D0B1
Accurately ripped (confidence 1) [7A9077E1] (AR v2)
Copy OK
Track 7
Filename D:\Music\MG rips\Iris & Ofer Portugaly - Before You Told Me - 1998 (HaTaklit 9296-2) [FLAC]\07 - I'm Still Here.wav
Peak level 65.2 %
Extraction speed 1.7 X
Track quality 100.0 %
Test CRC 2FF10D9D
Copy CRC 2FF10D9D
Accurately ripped (confidence 1) [B77EA996] (AR v2)
Copy OK
Track 8
Filename D:\Music\MG rips\Iris & Ofer Portugaly - Before You Told Me - 1998 (HaTaklit 9296-2) [FLAC]\08 - THree.wav
Peak level 98.8 %
Extraction speed 1.7 X
Track quality 100.0 %
Test CRC 2FFE8F37
Copy CRC 2FFE8F37
Accurately ripped (confidence 1) [A1F94C4D] (AR v2)
Copy OK
Track 9
Filename D:\Music\MG rips\Iris & Ofer Portugaly - Before You Told Me - 1998 (HaTaklit 9296-2) [FLAC]\09 - Tell Me a Bedtime Story.wav
Peak level 98.8 %
Extraction speed 1.9 X
Track quality 100.0 %
Test CRC C4712299
Copy CRC C4712299
Accurately ripped (confidence 1) [B7BC8F1E] (AR v2)
Copy OK
Track 10
Filename D:\Music\MG rips\Iris & Ofer Portugaly - Before You Told Me - 1998 (HaTaklit 9296-2) [FLAC]\10 - A Foggy Day In Eilat Town.wav
Pre-gap length 0:00:00.01
Peak level 98.8 %
Extraction speed 1.9 X
Track quality 100.0 %
Test CRC 7CD9B3BB
Copy CRC 7CD9B3BB
Accurately ripped (confidence 1) [A980D279] (AR v2)
Copy OK
Track 11
Filename D:\Music\MG rips\Iris & Ofer Portugaly - Before You Told Me - 1998 (HaTaklit 9296-2) [FLAC]\11 - Somebody Loves You.wav
Peak level 100.0 %
Extraction speed 1.9 X
Track quality 100.0 %
Test CRC 271001FB
Copy CRC 271001FB
Accurately ripped (confidence 1) [1F20810E] (AR v2)
Copy OK
All tracks accurately ripped
No errors occurred
End of status report
==== Log checksum 35542F99EC398A952B49432AFD5811C478B6DA0BFA3D2FE0A65047877155B4C8 ====

REM GENRE Jazz
REM DATE 1998
REM DISCID A60B220B
REM COMMENT "ExactAudioCopy v1.3"
PERFORMER "Iris & Ofer Portugaly"
TITLE "Before You Told Me"
REM COMPOSER ""
FILE "01 - Before You Told Me.wav" WAVE
TRACK 01 AUDIO
TITLE "Before You Told Me"
PERFORMER "Iris & Ofer Portugaly"
REM COMPOSER ""
INDEX 01 00:00:00
FILE "02 - Games Of Shadows And Light.wav" WAVE
TRACK 02 AUDIO
TITLE "Games Of Shadows And Light"
PERFORMER "Iris & Ofer Portugaly"
REM COMPOSER ""
INDEX 01 00:00:00
FILE "03 - Only With Her.wav" WAVE
TRACK 03 AUDIO
TITLE "Only With Her"
PERFORMER "Iris & Ofer Portugaly"
REM COMPOSER ""
INDEX 01 00:00:00
FILE "04 - Sea Journey.wav" WAVE
TRACK 04 AUDIO
TITLE "Sea Journey"
PERFORMER "Iris & Ofer Portugaly"
REM COMPOSER ""
INDEX 01 00:00:00
FILE "05 - Blind Date.wav" WAVE
TRACK 05 AUDIO
TITLE "Blind Date"
PERFORMER "Iris & Ofer Portugaly"
REM COMPOSER ""
INDEX 01 00:00:00
TRACK 06 AUDIO
TITLE "Goodbye My Dear"
PERFORMER "Iris & Ofer Portugaly"
REM COMPOSER ""
INDEX 00 04:51:08
FILE "06 - Goodbye My Dear.wav" WAVE
INDEX 01 00:00:00
FILE "07 - I'm Still Here.wav" WAVE
TRACK 07 AUDIO
TITLE "I'm Still Here"
PERFORMER "Iris & Ofer Portugaly"
REM COMPOSER ""
INDEX 01 00:00:00
FILE "08 - Three.wav" WAVE
TRACK 08 AUDIO
TITLE "Three"
PERFORMER "Iris & Ofer Portugaly"
REM COMPOSER ""
INDEX 01 00:00:00
FILE "09 - Tell Me a Bedtime Story.wav" WAVE
TRACK 09 AUDIO
TITLE "Tell Me a Bedtime Story"
PERFORMER "Iris & Ofer Portugaly"
REM COMPOSER ""
INDEX 01 00:00:00
TRACK 10 AUDIO
TITLE "A Foggy Day In Eilat Town"
PERFORMER "Iris & Ofer Portugaly"
REM COMPOSER ""
INDEX 00 04:31:47
FILE "10 - A Foggy Day In Eilat Town.wav" WAVE
INDEX 01 00:00:00
FILE "11 - Somebody Loves You.wav" WAVE
TRACK 11 AUDIO
TITLE "Somebody Loves You"
PERFORMER "Iris & Ofer Portugaly"
REM COMPOSER ""
INDEX 01 00:00:00


[CUETools log; Date: 1/15/2019 7:25:36 AM; Version: 2.1.5]
[CTDB TOCID: KNd.Ulvb1cVDeQuz0s8MQLnDJfc-] disk not present in database.
[AccurateRip ID: 00153d9d-00b564de-a60b220b] found.
Track [ CRC | V2 ] Status
01 [9ea54e03|93badaf5] (0 1/1) Accurately ripped
02 [cc5f9303|8f9de157] (0 1/1) Accurately ripped
03 [8af9a4e6|d0e7bb1b] (0 1/1) Accurately ripped
04 [c1930fb6|c7d56368] (0 1/1) Accurately ripped
05 [7c54c8f2|16884a03] (0 1/1) Accurately ripped
06 [f73537b5|7a9077e1] (0 1/1) Accurately ripped
07 [ea3a9ead|b77ea996] (0 1/1) Accurately ripped
08 [3bf72d50|a1f94c4d] (0 1/1) Accurately ripped
09 [fa0323aa|b7bc8f1e] (0 1/1) Accurately ripped
10 [6bbf4c2e|a980d279] (0 1/1) Accurately ripped
11 [93382d9a|1f20810e] (0 1/1) Accurately ripped
Track Peak [ CRC32 ] [W/O NULL] [ LOG ]
-- 100.0 [75DD5D18] [2F8CFDE5]
01 98.8 [57371A48] [A2180967] CRC32
02 98.8 [11924864] [04F8EC47] CRC32
03 98.8 [5DB4437D] [8E5F5D00] CRC32
04 98.8 [D0C1E5C5] [45CAFE5C] CRC32
05 98.8 [2BA9D9F7] [8B2E3C12] CRC32
06 98.8 [9BC2D0B1] [6D40D94C] CRC32
07 65.2 [2FF10D9D] [C88CFF32] CRC32
08 98.8 [2FFE8F37] [FAD00B76] CRC32
09 98.8 [C4712299] [AA9A9100] CRC32
10 98.8 [7CD9B3BB] [D4068631] CRC32
11 100.0 [271001FB] [61E731D8] CRC32

foobar2000 1.3.10 / Замер динамического диапазона (DR) 1.1.1
Дата отчёта: 2019-01-15 07:21:39
--------------------------------------------------------------------------------
Анализ: Iris & Ofer Portugaly / Before You Told Me
--------------------------------------------------------------------------------
DR Пики RMS Продолжительность трека
--------------------------------------------------------------------------------
DR11 -0.10 дБ -13.73 дБ 4:26 01-Before You Told Me
DR12 -0.10 дБ -14.09 дБ 4:42 02-Games Of Shadows And Light
DR10 -0.10 дБ -13.58 дБ 5:22 03-Only Woth Her
DR11 -0.10 дБ -14.28 дБ 6:46 04-Sea Journey
DR13 -0.10 дБ -16.28 дБ 4:53 05-Blind Date
DR12 -0.10 дБ -15.71 дБ 3:43 06-Goodbye My Dear
DR8 -3.70 дБ -14.07 дБ 4:05 07-I'm Still Here
DR12 -0.10 дБ -14.12 дБ 2:48 08-THree
DR14 -0.10 дБ -17.05 дБ 4:32 09-Tell Me a Bedtime Story
DR12 -0.10 дБ -15.17 дБ 3:17 10-A Foggy Day In Eilat Town
DR11 0.00 дБ -14.89 дБ 2:58 11-Somebody Loves You
--------------------------------------------------------------------------------
Количество треков: 11
Реальные значения DR: DR11
Частота: 44100 Гц
Каналов: 2
Разрядность: 16
Битрейт: 591 кбит/с
Кодек: FLAC
================================================================================







Iris Portugaly - Vocals, Drums
Ofer Portugaly - Piano, Keyboards, Vocals
Yorai Oron - Electric Bass
Barak Mori - Acoustic Bass
Avi Singolda - Guitars
Ilan Salem - Flute
Hod Kalamus - Cello
Oren Balaban - Percussion


#777
Год издания оригинала: 2003
Страна - производитель диска: Israel
Издатель (лейбл): Self released
Номер по каталогу: No number
Тип: CD, Album, Live
Трэклист:
1. God Bless The Child - 6:41 (Billie Holiday)
2. Up Above My Head - 5:53 (Myron Butler)

Contains adapted lyrics from "Over My Head" African American Traditional
3. Breathe Into Me Oh Lord - 6:37 (PSALM 119:25) Fred Hammond, David Ivey
Lead Vocals - Sagiv Cohen & Adi Hirshhorn
4. You've Got A Friend - 4:55 (Carole King)
Lead Vocals - Iris Portugaly & Liron Peled
5. If - 7:00 (Iris Portugaly)
6. Yemenite Medley - 6:16

Lead Vocals - Ofra Ofer, Orit Hilel & Sagiv Cohen
7. Round Midnight - 7:28 (Thelonious Monk)
8. Oh Happy Day - 4:00 (E. Hawkins / Hebrew - Ehud Manor)

Lead Vocals - Gavriel Butler & Ariella Abrahamson
9. Moanin' - 6:08 (Bobby Timmons)
Lead Vocals - Liran Kopel, Dvir Cafri, Jonathan Shapira & Ofer Portugaly
10. Ode To Joy - 0:44 (Ludwig van Beethoven)
11. Joyful Joyful / Choir Introduction - 8:22

("Joyful Joyful" arranged by Mervyn Warren, Based on "Ode To Joy" from Beethoven's 9th Symphony). "What Have You Done For Me Lately" written by James Harris, Terry Lewis. "O.P.P. written by Alphonso Mizell, Freddie Perren, Deke Richards, Berry Gordy, Anthony Criss, Keir Gist, Vincent Brown. Additional rap lyrics by Ryan Toby. ("Choir Introduction" - Writen by Ofer Portugaly)
Lead Vocals - Ofra Ofer & Orit Hilel, Rap - Ayelet Chen, Sagiv Cohen & Liran Kopel

12. As - 7:00 (Stevie Wonder)
Lead Vocals - Efrat Sosner, Liron Peled, Ayelet Chen & Liora Hanukoglu-Gonzalez
13. Bohemian Rhapsody - 6:50 (Freddie Mercury)
Musical Arrangements & Production - Ofer Portugaly
Recorded LIVE on July 31 th & August 21th 2003 at Enav Caltural Ctr. In Tel Aviv by Ron Tichon.
Tracks #1,12,13- recorded at "Zohar Melody Studio".[align=center]

[/center]

Exact Audio Copy V1.3 from 2. September 2016
EAC extraction logfile from 5. January 2017, 22:01
Iris and Ofer Portugaly / Gospel Jazz Live
Used drive : HL-DT-STDVDRAM GH24NSB0 Adapter: 1 ID: 0
Read mode : Secure
Utilize accurate stream : Yes
Defeat audio cache : Yes
Make use of C2 pointers : No
Read offset correction : 6
Overread into Lead-In and Lead-Out : No
Fill up missing offset samples with silence : Yes
Delete leading and trailing silent blocks : No
Null samples used in CRC calculations : Yes
Used interface : Native Win32 interface for Win NT & 2000
Gap handling : Appended to previous track
Used output format : User Defined Encoder
Selected bitrate : 1024 kBit/s
Quality : High
Add ID3 tag : No
Command line compressor : C:\Program Files (x86)\Exact Audio Copy\FLAC\FLAC.EXE
Additional command line options : -V -8 -T "Genre=%genre%" -T "Artist=%artist%" -T "Title=%title%" -T "Album=%albumtitle%" -T "Date=%year%" -T "Tracknumber=%tracknr%" -T "Comment=%comment%" %source%
TOC of the extracted CD
Track | Start | Length | Start sector | End sector
---------------------------------------------------------
1 | 0:00.00 | 6:41.12 | 0 | 30086
2 | 6:41.12 | 5:53.49 | 30087 | 56610
3 | 12:34.61 | 6:37.08 | 56611 | 86393
4 | 19:11.69 | 4:55.39 | 86394 | 108557
5 | 24:07.33 | 7:00.42 | 108558 | 140099
6 | 31:08.00 | 6:16.68 | 140100 | 168367
7 | 37:24.68 | 7:28.19 | 168368 | 201986
8 | 44:53.12 | 4:04.13 | 201987 | 220299
9 | 48:57.25 | 6:08.16 | 220300 | 247915
10 | 55:05.41 | 0:44.71 | 247916 | 251286
11 | 55:50.37 | 8:22.29 | 251287 | 288965
12 | 64:12.66 | 7:00.63 | 288966 | 320528
13 | 71:13.54 | 6:50.45 | 320529 | 351323
Track 1
Filename D:\Musicgate's rips\Iris and Ofer Portugaly - Gospel Jazz Live - 2003 (Self released)\01 - God Bless The Child.wav
Pre-gap length 0:00:02.00
Peak level 98.9 %
Extraction speed 1.2 X
Track quality 100.0 %
Test CRC F126EEDB
Copy CRC F126EEDB
Accurately ripped (confidence 1) [BF09A9B8] (AR v2)
Copy OK
Track 2
Filename D:\Musicgate's rips\Iris and Ofer Portugaly - Gospel Jazz Live - 2003 (Self released)\02 - Up Above My Head.wav
Peak level 98.9 %
Extraction speed 1.4 X
Track quality 100.0 %
Test CRC 47A211F5
Copy CRC 47A211F5
Accurately ripped (confidence 1) [85C47387] (AR v2)
Copy OK
Track 3
Filename D:\Musicgate's rips\Iris and Ofer Portugaly - Gospel Jazz Live - 2003 (Self released)\03 - Breathe Into Me Oh Lord.wav
Pre-gap length 0:00:00.02
Peak level 98.9 %
Extraction speed 1.6 X
Track quality 100.0 %
Test CRC 4EEB9CFA
Copy CRC 4EEB9CFA
Accurately ripped (confidence 1) [EB9CEBB1] (AR v2)
Copy OK
Track 4
Filename D:\Musicgate's rips\Iris and Ofer Portugaly - Gospel Jazz Live - 2003 (Self released)\04 - You've Got a Friend.wav
Peak level 98.8 %
Extraction speed 1.7 X
Track quality 100.0 %
Test CRC 6D052046
Copy CRC 6D052046
Accurately ripped (confidence 1) [CF363783] (AR v2)
Copy OK
Track 5
Filename D:\Musicgate's rips\Iris and Ofer Portugaly - Gospel Jazz Live - 2003 (Self released)\05 - If.wav
Peak level 98.8 %
Extraction speed 1.8 X
Track quality 100.0 %
Test CRC D647FC30
Copy CRC D647FC30
Accurately ripped (confidence 1) [228DCD43] (AR v2)
Copy OK
Track 6
Filename D:\Musicgate's rips\Iris and Ofer Portugaly - Gospel Jazz Live - 2003 (Self released)\06 - Yemenite Medley.wav
Peak level 98.8 %
Extraction speed 2.0 X
Track quality 100.0 %
Test CRC 3AE74A8B
Copy CRC 3AE74A8B
Accurately ripped (confidence 1) [B71897B5] (AR v2)
Copy OK
Track 7
Filename D:\Musicgate's rips\Iris and Ofer Portugaly - Gospel Jazz Live - 2003 (Self released)\07 - Round Midnight.wav
Peak level 98.8 %
Extraction speed 2.1 X
Track quality 100.0 %
Test CRC 1ADE65E9
Copy CRC 1ADE65E9
Accurately ripped (confidence 1) [5D8BE038] (AR v2)
Copy OK
Track 8
Filename D:\Musicgate's rips\Iris and Ofer Portugaly - Gospel Jazz Live - 2003 (Self released)\08 - Oh Happy Day.wav
Peak level 98.8 %
Extraction speed 2.1 X
Track quality 100.0 %
Test CRC B678B834
Copy CRC B678B834
Accurately ripped (confidence 1) [FEF98084] (AR v2)
Copy OK
Track 9
Filename D:\Musicgate's rips\Iris and Ofer Portugaly - Gospel Jazz Live - 2003 (Self released)\09 - Moanin'.wav
Peak level 98.8 %
Extraction speed 2.2 X
Track quality 100.0 %
Test CRC E5BCB065
Copy CRC E5BCB065
Accurately ripped (confidence 1) [5F29864F] (AR v2)
Copy OK
Track 10
Filename D:\Musicgate's rips\Iris and Ofer Portugaly - Gospel Jazz Live - 2003 (Self released)\10 - Ode to Joy.wav
Peak level 98.8 %
Extraction speed 1.4 X
Track quality 100.0 %
Test CRC FFD3A666
Copy CRC FFD3A666
Accurately ripped (confidence 1) [47FFBDFA] (AR v2)
Copy OK
Track 11
Filename D:\Musicgate's rips\Iris and Ofer Portugaly - Gospel Jazz Live - 2003 (Self released)\11 - Joyful Joyful,Choir introduction.wav
Peak level 98.8 %
Extraction speed 2.5 X
Track quality 100.0 %
Test CRC 317097E5
Copy CRC 317097E5
Accurately ripped (confidence 1) [47FC12FA] (AR v2)
Copy OK
Track 12
Filename D:\Musicgate's rips\Iris and Ofer Portugaly - Gospel Jazz Live - 2003 (Self released)\12 - As.wav
Peak level 98.9 %
Extraction speed 2.5 X
Track quality 100.0 %
Test CRC 0A33F065
Copy CRC 0A33F065
Accurately ripped (confidence 1) [0F057406] (AR v2)
Copy OK
Track 13
Filename D:\Musicgate's rips\Iris and Ofer Portugaly - Gospel Jazz Live - 2003 (Self released)\13 - Bohemian Raphsody.wav
Peak level 98.8 %
Extraction speed 2.6 X
Track quality 100.0 %
Test CRC BA2E37F5
Copy CRC BA2E37F5
Accurately ripped (confidence 1) [F64FEDBF] (AR v2)
Copy OK
All tracks accurately ripped
No errors occurred
End of status report
==== Log checksum ABF7269ACB8BEFD363AC11D93B0D5FBA42855E15F1FBE127E153DF033E01EF6B ====

REM GENRE "Jazz Israeli"
REM DATE 2003
REM DISCID C2124C0D
REM COMMENT "ExactAudioCopy v1.3"
PERFORMER "Iris and Ofer Portugaly"
TITLE "Gospel Jazz Live"
REM COMPOSER ""
FILE "01 - God Bless The Child.wav" WAVE
TRACK 01 AUDIO
TITLE "God Bless The Child"
PERFORMER "Iris and Ofer Portugaly"
REM COMPOSER ""
INDEX 01 00:00:00
FILE "02 - Up Above My Head.wav" WAVE
TRACK 02 AUDIO
TITLE "Up Above My Head"
PERFORMER "Iris and Ofer Portugaly"
REM COMPOSER ""
INDEX 01 00:00:00
TRACK 03 AUDIO
TITLE "Breathe Into Me Oh Lord"
PERFORMER "Iris and Ofer Portugaly"
REM COMPOSER ""
INDEX 00 05:53:47
FILE "03 - Breathe Into Me Oh Lord.wav" WAVE
INDEX 01 00:00:00
FILE "04 - You've Got a Friend.wav" WAVE
TRACK 04 AUDIO
TITLE "You've Got a Friend"
PERFORMER "Iris and Ofer Portugaly"
REM COMPOSER ""
INDEX 01 00:00:00
FILE "05 - If.wav" WAVE
TRACK 05 AUDIO
TITLE "If"
PERFORMER "Iris and Ofer Portugaly"
REM COMPOSER ""
INDEX 01 00:00:00
FILE "06 - Yemenite Medley.wav" WAVE
TRACK 06 AUDIO
TITLE "Yemenite Medley"
PERFORMER "Iris and Ofer Portugaly"
REM COMPOSER ""
INDEX 01 00:00:00
FILE "07 - Round Midnight.wav" WAVE
TRACK 07 AUDIO
TITLE "Round Midnight"
PERFORMER "Iris and Ofer Portugaly"
REM COMPOSER ""
INDEX 01 00:00:00
FILE "08 - Oh Happy Day.wav" WAVE
TRACK 08 AUDIO
TITLE "Oh Happy Day"
PERFORMER "Iris and Ofer Portugaly"
REM COMPOSER ""
INDEX 01 00:00:00
FILE "09 - Moanin'.wav" WAVE
TRACK 09 AUDIO
TITLE "Moanin'"
PERFORMER "Iris and Ofer Portugaly"
REM COMPOSER ""
INDEX 01 00:00:00
FILE "10 - Ode to Joy.wav" WAVE
TRACK 10 AUDIO
TITLE "Ode to Joy"
PERFORMER "Iris and Ofer Portugaly"
REM COMPOSER ""
INDEX 01 00:00:00
FILE "11 - Joyful Joyful,Choir introduction.wav" WAVE
TRACK 11 AUDIO
TITLE "Joyful Joyful/Choir introduction"
PERFORMER "Iris and Ofer Portugaly"
REM COMPOSER ""
INDEX 01 00:00:00
FILE "12 - As.wav" WAVE
TRACK 12 AUDIO
TITLE "As"
PERFORMER "Iris and Ofer Portugaly"
REM COMPOSER ""
INDEX 01 00:00:00
FILE "13 - Bohemian Raphsody.wav" WAVE
TRACK 13 AUDIO
TITLE "Bohemian Raphsody"
PERFORMER "Iris and Ofer Portugaly"
REM COMPOSER ""
INDEX 01 00:00:00


[CUETools log; Date: 2/27/2018 7:40:38 AM; Version: 2.1.5]
[CTDB TOCID: 8ozdVdwKJu0SICk_i6BqS5k3oQs-] disk not present in database.
[AccurateRip ID: 0025b9eb-017655f4-c2124c0d] found.
Track [ CRC | V2 ] Status
01 [6a9a4a75|bf09a9b8] (0 1/1) Accurately ripped
02 [9af12266|85c47387] (0 1/1) Accurately ripped
03 [fb981268|eb9cebb1] (0 1/1) Accurately ripped
04 [35c17c82|cf363783] (0 1/1) Accurately ripped
05 [54c1e081|228dcd43] (0 1/1) Accurately ripped
06 [d1b1f63f|b71897b5] (0 1/1) Accurately ripped
07 [9147537e|5d8be038] (0 1/1) Accurately ripped
08 [009e94e4|fef98084] (0 1/1) Accurately ripped
09 [71f1d2a9|5f29864f] (0 1/1) Accurately ripped
10 [729eebe6|47ffbdfa] (0 1/1) Accurately ripped
11 [2a67af39|47fc12fa] (0 1/1) Accurately ripped
12 [0c62df52|0f057406] (0 1/1) Accurately ripped
13 [a3966a9a|f64fedbf] (0 1/1) Accurately ripped
Track Peak [ CRC32 ] [W/O NULL] [ LOG ]
-- 98.9 [13DAB836] [05DBB405]
01 98.9 [F126EEDB] [78042C42] CRC32
02 98.9 [47A211F5] [89F129D5] CRC32
03 98.8 [4EEB9CFA] [D2D2E1E8] CRC32
04 98.8 [6D052046] [1D42A073] CRC32
05 98.8 [D647FC30] [BD792F96] CRC32
06 98.7 [3AE74A8B] [2DD4A0D4] CRC32
07 98.8 [1ADE65E9] [B0978CB3] CRC32
08 98.8 [B678B834] [BE4B51F7] CRC32
09 98.8 [E5BCB065] [F10E898E] CRC32
10 98.8 [FFD3A666] [9203825A] CRC32
11 98.8 [317097E5] [7E8084A2] CRC32
12 98.9 [0A33F065] [C32FFD45] CRC32
13 98.8 [BA2E37F5] [744D01D8] CRC32

foobar2000 1.3.10 / Замер динамического диапазона (DR) 1.1.1
Дата отчёта: 2018-04-17 08:46:54
--------------------------------------------------------------------------------
Анализ: Iris and Ofer Portugaly / Gospel Jazz Live
--------------------------------------------------------------------------------
DR Пики RMS Продолжительность трека
--------------------------------------------------------------------------------
DR10 -0.10 дБ -12.65 дБ 6:41 01-God Bless The Child
DR8 -0.10 дБ -10.76 дБ 5:54 02-Up Above My Head
DR9 -0.10 дБ -12.88 дБ 6:37 03-Breathe Into Me Oh Lord
DR8 -0.10 дБ -10.14 дБ 4:56 04-You've Got a Friend
DR9 -0.10 дБ -14.15 дБ 7:01 05-If
DR9 -0.11 дБ -12.86 дБ 6:17 06-Yemenite Medley
DR10 -0.10 дБ -14.00 дБ 7:28 07-Round Midnight
DR8 -0.10 дБ -11.71 дБ 4:04 08-Oh Happy Day
DR8 -0.10 дБ -12.31 дБ 6:08 09-Moanin'
DR11 -0.10 дБ -17.51 дБ 0:45 10-Ode to Joy
DR8 -0.10 дБ -12.43 дБ 8:22 11-Joyful Joyful/Choir introduction
DR7 -0.10 дБ -8.99 дБ 7:01 12-As
DR9 -0.10 дБ -13.53 дБ 6:51 13-Bohemian Raphsody
--------------------------------------------------------------------------------
Количество треков: 13
Реальные значения DR: DR9
Частота: 44100 Гц
Каналов: 2
Разрядность: 16
Битрейт: 813 кбит/с
Кодек: FLAC
================================================================================






Iris Portugaly: lead vocals
Gavriel Butler: lead vocals on "Oh Happy Day"
Eli Degibri: tenor saxophone
Ofer Portugaly: piano
Steve Peskoff: guitar on: "Up Above My Head", "Breathe Into Me Oh Lord", "You've Got A Friend", "If", "Round Midnight", "Moanin'" & "joyful joyful"
Yotam Silberstein: guitar on: "God Bless The Child", "As" & "Bohemian Rhapsody"
Ori Ben Zvi: guitar on: "Yemenite Medley" & "Oh Happy Day"
Oded Goldshmidt: bass
Amir David: drums
Sopranos: Ofra Ofer, Orit Hillel, Liora Hanukoglu-Gonzalez, Ariella Abrahamson, Liron Peled
Altos: Adi Hirshhorn, Efrat Sosner, Ayelet Chen
Tenors: Liran Kopel, Dvir Cafri, Sagiv Cohen, Yaniv Mintzer
Bass: Jonathan Shapira


#777
Год издания оригинала: 2007
Страна - производитель диска: Israel
Издатель (лейбл): Self released
Номер по каталогу: No number
Тип: CD, Album, Records for radio broadcastings
Трэклист:
1. Endless Story (Iris Portugaly) 4:30
2. Love of My Life (Zanani & Ben Mush) 4:59
3. April 5th (Ofer Portugaly) 6:32
4. New Horizon (Iris & Ofer Portugaly) 3:52
5. West of here (Tirtsa Alar & Matti Caspi) 4:15
6. Tmuna Blues (Ofer Portugaly) 7:00
7. The One in Your Heart (Iris Portugaly) 3:57
8. The Rose in My Garden (Avihu Medina) 4:29
9. Song for Keith (Ofer Portugaly) 6:54
10. Rain (Y. Gilad & Y. Amsalem) 4:43
11. Always About You (Iris Portugaly) 3:55
12. Somewhere Over the Rainbow (Harold Arlen & E.Y. Harburg) 4:48

Exact Audio Copy V1.3 from 2. September 2016
EAC extraction logfile from 15. January 2017, 20:22
א י ר י ס ו ע ו פ ר פ ו ר ט ו ג ל י / ס י פ ו ר ב ה מ ש כ י ם
Used drive : HL-DT-STDVDRAM GH24NSB0 Adapter: 1 ID: 0
Read mode : Secure
Utilize accurate stream : Yes
Defeat audio cache : Yes
Make use of C2 pointers : No
Read offset correction : 6
Overread into Lead-In and Lead-Out : No
Fill up missing offset samples with silence : Yes
Delete leading and trailing silent blocks : No
Null samples used in CRC calculations : Yes
Used interface : Native Win32 interface for Win NT & 2000
Gap handling : Appended to previous track
Used output format : User Defined Encoder
Selected bitrate : 1024 kBit/s
Quality : High
Add ID3 tag : No
Command line compressor : C:\Program Files (x86)\Exact Audio Copy\FLAC\FLAC.EXE
Additional command line options : -V -8 -T "Genre=%genre%" -T "Artist=%artist%" -T "Title=%title%" -T "Album=%albumtitle%" -T "Date=%year%" -T "Tracknumber=%tracknr%" -T "Comment=%comment%" %source%
TOC of the extracted CD
Track | Start | Length | Start sector | End sector
---------------------------------------------------------
1 | 0:00.00 | 4:31.53 | 0 | 20377
2 | 4:31.53 | 5:01.01 | 20378 | 42953
3 | 9:32.54 | 6:34.08 | 42954 | 72511
4 | 16:06.62 | 3:54.30 | 72512 | 90091
5 | 20:01.17 | 4:17.59 | 90092 | 109425
6 | 24:19.01 | 7:02.65 | 109426 | 141140
7 | 31:21.66 | 3:59.63 | 141141 | 159128
8 | 35:21.54 | 4:30.10 | 159129 | 179388
9 | 39:51.64 | 6:57.42 | 179389 | 210705
10 | 46:49.31 | 4:45.09 | 210706 | 232089
11 | 51:34.40 | 3:57.20 | 232090 | 249884
12 | 55:31.60 | 4:51.14 | 249885 | 271723
Track 1
Filename D:\Musicgate's rips\ א י ר י ס ו ע ו פ ר פ ו ר ט ו ג ל י – ס י פ ו ר ב ה מ ש כ י ם - 2007\01 - ס י פ ו ר ב ה מ ש כ י ם.wav
Pre-gap length 0:00:02.00
Peak level 100.0 %
Extraction speed 1.1 X
Track quality 100.0 %
Test CRC 5FED5A20
Copy CRC 5FED5A20
Track not present in AccurateRip database
Copy OK
Track 2
Filename D:\Musicgate's rips\ א י ר י ס ו ע ו פ ר פ ו ר ט ו ג ל י – ס י פ ו ר ב ה מ ש כ י ם - 2007\02 - א ה ב ת ח י י.wav
Peak level 100.0 %
Extraction speed 1.2 X
Track quality 100.0 %
Test CRC 0117E3CD
Copy CRC 0117E3CD
Track not present in AccurateRip database
Copy OK
Track 3
Filename D:\Musicgate's rips\ א י ר י ס ו ע ו פ ר פ ו ר ט ו ג ל י – ס י פ ו ר ב ה מ ש כ י ם - 2007\03 - ח מ י ש ה ב א פ ר י ל.wav
Peak level 98.0 %
Extraction speed 1.4 X
Track quality 100.0 %
Test CRC 73F89948
Copy CRC 73F89948
Track not present in AccurateRip database
Copy OK
Track 4
Filename D:\Musicgate's rips\ א י ר י ס ו ע ו פ ר פ ו ר ט ו ג ל י – ס י פ ו ר ב ה מ ש כ י ם - 2007\04 - א ו פ ק ח ד ש.wav
Peak level 100.0 %
Extraction speed 1.3 X
Track quality 99.9 %
Test CRC 53CBCD7D
Copy CRC 53CBCD7D
Track not present in AccurateRip database
Copy OK
Track 5
Filename D:\Musicgate's rips\ א י ר י ס ו ע ו פ ר פ ו ר ט ו ג ל י – ס י פ ו ר ב ה מ ש כ י ם - 2007\05 - מ ע ר ב ה מ כ א ן.wav
Peak level 100.0 %
Extraction speed 1.6 X
Track quality 100.0 %
Test CRC D8C01E43
Copy CRC D8C01E43
Track not present in AccurateRip database
Copy OK
Track 6
Filename D:\Musicgate's rips\ א י ר י ס ו ע ו פ ר פ ו ר ט ו ג ל י – ס י פ ו ר ב ה מ ש כ י ם - 2007\06 - ת מ ו נ ע ב ל ו ז.wav
Peak level 89.1 %
Extraction speed 1.7 X
Track quality 100.0 %
Test CRC 5F730D1C
Copy CRC 5F730D1C
Track not present in AccurateRip database
Copy OK
Track 7
Filename D:\Musicgate's rips\ א י ר י ס ו ע ו פ ר פ ו ר ט ו ג ל י – ס י פ ו ר ב ה מ ש כ י ם - 2007\07 - ה א י ש ש ב ל י ב ך.wav
Peak level 100.0 %
Extraction speed 1.8 X
Track quality 100.0 %
Test CRC 8933875B
Copy CRC 8933875B
Track not present in AccurateRip database
Copy OK
Track 8
Filename D:\Musicgate's rips\ א י ר י ס ו ע ו פ ר פ ו ר ט ו ג ל י – ס י פ ו ר ב ה מ ש כ י ם - 2007\08 - ה פ ר ח ב ג נ י.wav
Peak level 99.8 %
Extraction speed 1.8 X
Track quality 100.0 %
Test CRC 9DF428A3
Copy CRC 9DF428A3
Track not present in AccurateRip database
Copy OK
Track 9
Filename D:\Musicgate's rips\ א י ר י ס ו ע ו פ ר פ ו ר ט ו ג ל י – ס י פ ו ר ב ה מ ש כ י ם - 2007\09 - Song for Keith.wav
Peak level 98.4 %
Extraction speed 2.0 X
Track quality 100.0 %
Test CRC F5DD828D
Copy CRC F5DD828D
Track not present in AccurateRip database
Copy OK
Track 10
Filename D:\Musicgate's rips\ א י ר י ס ו ע ו פ ר פ ו ר ט ו ג ל י – ס י פ ו ר ב ה מ ש כ י ם - 2007\10 - ג ש ם.wav
Peak level 100.0 %
Extraction speed 2.1 X
Track quality 100.0 %
Test CRC CB8B6832
Copy CRC CB8B6832
Track not present in AccurateRip database
Copy OK
Track 11
Filename D:\Musicgate's rips\ א י ר י ס ו ע ו פ ר פ ו ר ט ו ג ל י – ס י פ ו ר ב ה מ ש כ י ם - 2007\11 - ה ש י ר י ם ת מ י ד ע ל י ך.wav
Peak level 98.9 %
Extraction speed 2.1 X
Track quality 100.0 %
Test CRC AC31F532
Copy CRC AC31F532
Track not present in AccurateRip database
Copy OK
Track 12
Filename D:\Musicgate's rips\ א י ר י ס ו ע ו פ ר פ ו ר ט ו ג ל י – ס י פ ו ר ב ה מ ש כ י ם - 2007\12 - Somewhere Over The Rainbow.wav
Peak level 83.1 %
Extraction speed 2.0 X
Track quality 99.9 %
Test CRC 4337D61B
Copy CRC 4337D61B
Track not present in AccurateRip database
Copy OK
None of the tracks are present in the AccurateRip database
No errors occurred
End of status report
==== Log checksum CAE0D11BF054C4F6DF8600D04E1FCF7014A921F110B97756EC34F9B143DBCFBA ====

REM GENRE "Jazz Israeli"
REM DATE 2007
REM DISCID 9E0E260C
REM COMMENT "ExactAudioCopy v1.3"
PERFORMER " א י ר י ס ו ע ו פ ר פ ו ר ט ו ג ל י"
TITLE " ס י פ ו ר ב ה מ ש כ י ם"
REM COMPOSER ""
FILE "01 - ס י פ ו ר ב ה מ ש כ י ם.wav" WAVE
TRACK 01 AUDIO
TITLE " ס י פ ו ר ב ה מ ש כ י ם"
PERFORMER " א י ר י ס ו ע ו פ ר פ ו ר ט ו ג ל י"
REM COMPOSER ""
FLAGS DCP
INDEX 01 00:00:00
FILE "02 - א ה ב ת ח י י.wav" WAVE
TRACK 02 AUDIO
TITLE " א ה ב ת ח י י"
PERFORMER " א י ר י ס ו ע ו פ ר פ ו ר ט ו ג ל י"
REM COMPOSER ""
FLAGS DCP
INDEX 01 00:00:00
FILE "03 - ח מ י ש ה ב א פ ר י ל.wav" WAVE
TRACK 03 AUDIO
TITLE " ח מ י ש ה ב א פ ר י ל"
PERFORMER " א י ר י ס ו ע ו פ ר פ ו ר ט ו ג ל י"
REM COMPOSER ""
FLAGS DCP
INDEX 01 00:00:00
FILE "04 - א ו פ ק ח ד ש.wav" WAVE
TRACK 04 AUDIO
TITLE " א ו פ ק ח ד ש"
PERFORMER " א י ר י ס ו ע ו פ ר פ ו ר ט ו ג ל י"
REM COMPOSER ""
FLAGS DCP
INDEX 01 00:00:00
FILE "05 - מ ע ר ב ה מ כ א ן.wav" WAVE
TRACK 05 AUDIO
TITLE " מ ע ר ב ה מ כ א ן"
PERFORMER " א י ר י ס ו ע ו פ ר פ ו ר ט ו ג ל י"
REM COMPOSER ""
FLAGS DCP
INDEX 01 00:00:00
FILE "06 - ת מ ו נ ע ב ל ו ז.wav" WAVE
TRACK 06 AUDIO
TITLE " ת מ ו נ ע ב ל ו ז"
PERFORMER " א י ר י ס ו ע ו פ ר פ ו ר ט ו ג ל י"
REM COMPOSER ""
FLAGS DCP
INDEX 01 00:00:00
FILE "07 - ה א י ש ש ב ל י ב ך.wav" WAVE
TRACK 07 AUDIO
TITLE " ה א י ש ש ב ל י ב ך"
PERFORMER " א י ר י ס ו ע ו פ ר פ ו ר ט ו ג ל י"
REM COMPOSER ""
FLAGS DCP
INDEX 01 00:00:00
FILE "08 - ה פ ר ח ב ג נ י.wav" WAVE
TRACK 08 AUDIO
TITLE " ה פ ר ח ב ג נ י"
PERFORMER " א י ר י ס ו ע ו פ ר פ ו ר ט ו ג ל י"
REM COMPOSER ""
FLAGS DCP
INDEX 01 00:00:00
FILE "09 - Song for Keith.wav" WAVE
TRACK 09 AUDIO
TITLE "Song for Keith"
PERFORMER " א י ר י ס ו ע ו פ ר פ ו ר ט ו ג ל י"
REM COMPOSER ""
FLAGS DCP
INDEX 01 00:00:00
FILE "10 - ג ש ם.wav" WAVE
TRACK 10 AUDIO
TITLE " ג ש ם"
PERFORMER " א י ר י ס ו ע ו פ ר פ ו ר ט ו ג ל י"
REM COMPOSER ""
FLAGS DCP
INDEX 01 00:00:00
FILE "11 - ה ש י ר י ם ת מ י ד ע ל י ך.wav" WAVE
TRACK 11 AUDIO
TITLE " ה ש י ר י ם ת מ י ד ע ל י ך"
PERFORMER " א י ר י ס ו ע ו פ ר פ ו ר ט ו ג ל י"
REM COMPOSER ""
FLAGS DCP
INDEX 01 00:00:00
FILE "12 - Somewhere Over The Rainbow.wav" WAVE
TRACK 12 AUDIO
TITLE "Somewhere Over The Rainbow"
PERFORMER " א י ר י ס ו ע ו פ ר פ ו ר ט ו ג ל י"
REM COMPOSER ""
FLAGS DCP
INDEX 01 00:00:00


[CUETools log; Date: 2/27/2018 7:40:46 AM; Version: 2.1.5]
[CTDB TOCID: bbIPMhSg9UU.SBOS1zb0eegm77A-] disk not present in database.
[AccurateRip ID: 001b26e2-00fdcdc5-9e0e260c] disk not present in database.
Track Peak [ CRC32 ] [W/O NULL] [ LOG ]
-- 100.0 [3EBDCC22] [60A1EC1E]
01 100.0 [5FED5A20] [E8E9A1D3] CRC32
02 100.0 [0117E3CD] [13F4D119] CRC32
03 98.0 [73F89948] [A6F9DFDC] CRC32
04 100.0 [53CBCD7D] [D1295953] CRC32
05 100.0 [D8C01E43] [38F04274] CRC32
06 89.1 [5F730D1C] [E47F8A38] CRC32
07 100.0 [8933875B] [0D000AE4] CRC32
08 99.8 [9DF428A3] [561D61BE] CRC32
09 98.4 [F5DD828D] [CF94A1BC] CRC32
10 100.0 [CB8B6832] [5A14F113] CRC32
11 98.9 [AC31F532] [24E2B42F] CRC32
12 83.1 [4337D61B] [D81AC336] CRC32

foobar2000 1.3.10 / Замер динамического диапазона (DR) 1.1.1
Дата отчёта: 2018-04-17 08:11:46
--------------------------------------------------------------------------------
Анализ: א י ר י ס ו ע ו פ ר פ ו ר ט ו ג ל י / ס י פ ו ר ב ה מ ש כ י ם
--------------------------------------------------------------------------------
DR Пики RMS Продолжительность трека
--------------------------------------------------------------------------------
DR8 0.00 дБ -11.15 дБ 4:32 01- ס י פ ו ר ב ה מ ש כ י ם
DR10 0.00 дБ -13.30 дБ 5:01 02- א ה ב ת ח י י
DR9 -0.17 дБ -11.07 дБ 6:34 03- ח מ י ש ה ב א פ ר י ל
DR10 0.00 дБ -13.54 дБ 3:54 04- א ו פ ק ח ד ש
DR12 0.00 дБ -15.26 дБ 4:18 05- מ ע ר ב ה מ כ א ן
DR10 -1.00 дБ -14.06 дБ 7:03 06- ת מ ו נ ע ב ל ו ז
DR8 0.00 дБ -11.18 дБ 4:00 07- ה א י ש ש ב ל י ב ך
DR9 -0.01 дБ -12.20 дБ 4:30 08- ה פ ר ח ב ג נ י
DR10 -0.14 дБ -12.57 дБ 6:58 09-Song for Keith
DR10 0.00 дБ -13.17 дБ 4:45 10- ג ש ם
DR8 -0.09 дБ -10.75 дБ 3:57 11- ה ש י ר י ם ת מ י ד ע ל י ך
DR6 -1.60 дБ -11.14 дБ 4:51 12-Somewhere Over The Rainbow
--------------------------------------------------------------------------------
Количество треков: 12
Реальные значения DR: DR9
Частота: 44100 Гц
Каналов: 2
Разрядность: 16
Битрейт: 796 кбит/с
Кодек: FLAC
================================================================================






Iris Portugaly - voice & drums
Ofer Portugaly - piano
Oded Goldshmidt - contrabass, electric bass
Additional musicians:
Amos Hoffman - guitar, oud (2,3,8,10)
Avi Lebovich - trombone (2,3,8)
Ilan Salem - flute (2,3,8,10,12)
Eli Degibri - tenor saxophone (3,5,6,9)
Yoed Nir - cello (1,7)
Zohar Fresco - percussion (2,6)
Gil Louis - guitars (11,12)
The Gospel Choir: Sopranos - Orit Hillel, Liora Hanukoglu - Gonzalez, Ariella Abrahamson - Ninyo, Rina Tal-, Altos - Adi Hirshhorn, Michal Guy, Ayelet Chen, Tenors - Amit Deitchman, Yaron spivack, Gil mozes, Baritone - Yotam mahler, Ray Livnat (11,12)


#777
Дата записи: live at Heichal Hatarbut Rishon Lezion. April 2013
Год издания оригинала: 2013
Страна - производитель диска: Israel
Издатель (лейбл): High Fidelity
Номер по каталогу: No number
Тип: CD, Album, Live
Трэклист:
1. Adon Olam (The Lord of All) (Lyrics: From the prayers, Music: Uzi Hitman)
Lead Vocals: Iris Portugaly
2. Shir LaMa'alot (Lyrics: Tehilim (Psalm 121:1-2) (Music: Yosef Karduner)
Lead Vocals: Michal Guy, Amit Deitchman
3. Lu Yehi / Let It Be (Lyrics & Music: John Lennon - Paul McCartney / Naomi Shemer)
Lead Vocals: Nadav Hazut, Yossi Hillel, Amit Deitchman, Maya Biran, Iris Portugaly
4. Adon Haselichot (Lord of Forgiveness) (Lyrics: From the prayers, Music: Folk Sefaradi-Israeli)
5. Yedid Nefesh (Beloved Of The Soul) (Lyrics: Sara Zweig / Ehud Zweig, Music: Rabbi Eleazar Azikri)
Lead Vocals: Iris Portugaly, Liora Hanukoglu-Gonzalez
6. Yom Yavo (A Day Will Come) (Lyrics: Dan Almagor, Music: Benny Nagari)
Lead Vocals: Iris Portugaly, Yael Mintz, Sigal Levy, Keren Eilenberg, Liora Hanukoglu-Gonzalez
7. HaPerach BeGani (The Rose in My Garden) (Lyrics & Music: Avihu Medina)
Lead Vocals: Iris Portugaly
8. Eeroch Mahalal Nivi (Lyrics: Rabbi David Hassine, Music: Folk Sefaradi-Yerushalmi)
Lead Vocals: Gil Moses
9. Hitragut (Relaxation) (Lyrics: Yehuda Kami, Music: Nachum Nardi to folk Jewish-Spanish)
Lead Vocals: Iris Portugaly
10. Ki Tavo'u El Ha'aretz (When You Come into the Land) (Lyrics: From the Bible, Music: Folk)
Voices: Amit Deitchman, Iris Portugaly
11. Yom Gadol / Oh Happy Day (Lyrics & Music: Edwin Hawkins, Hebrew Version: Ehud Manor)
Lead Vocals: Chen Yamin, Maya Biran, Keren Eilenberg
12. El Ginat Egoz (Lyrics: From the Bible, Music: Sarah Levi Tanai)
Lead Vocals: Amit Deitchman
13. bonus track: New Horizon (Iris & Ofer Portugaly)
Iris Portugaly- voice & drums; Eli Degibri - saxophone; Ofer Portugaly -piano; Oded Goldshmidt - double bass; The Gospel Choir - voices
New Horizon was recorded in Luna Studios by Guy Lebiush


Exact Audio Copy V1.0 beta 3 from 29. August 2011
EAC extraction logfile from 28. December 2013, 22:02
Iris & Ofer Portugaly / The Lord Of Forgivenes
Used drive : HL-DT-STDVD-RAM GH22NP20 Adapter: 0 ID: 0
Read mode : Secure
Utilize accurate stream : Yes
Defeat audio cache : Yes
Make use of C2 pointers : No
Read offset correction : 102
Overread into Lead-In and Lead-Out : No
Fill up missing offset samples with silence : Yes
Delete leading and trailing silent blocks : No
Null samples used in CRC calculations : Yes
Used interface : Native Win32 interface for Win NT & 2000
Gap handling : Appended to previous track
Used output format : User Defined Encoder
Selected bitrate : 1024 kBit/s
Quality : High
Add ID3 tag : No
Command line compressor : C:\Program Files\Exact Audio Copy\Flac\flac.exe
Additional command line options : -V -8 -T "Genre=%genre%" -T "Artist=%artist%" -T "Title=%title%" -T "Album=%albumtitle%" -T "Date=%year%" -T "Tracknumber=%tracknr%" -T "Comment=%comment%" %source%
TOC of the extracted CD
Track | Start | Length | Start sector | End sector
---------------------------------------------------------
1 | 0:00.00 | 3:36.74 | 0 | 16273
2 | 3:36.74 | 4:35.51 | 16274 | 36949
3 | 8:12.50 | 5:22.74 | 36950 | 61173
4 | 13:35.49 | 5:21.69 | 61174 | 85317
5 | 18:57.43 | 5:14.18 | 85318 | 108885
6 | 24:11.61 | 4:31.26 | 108886 | 129236
7 | 28:43.12 | 8:33.10 | 129237 | 167721
8 | 37:16.22 | 4:51.13 | 167722 | 189559
9 | 42:07.35 | 3:55.33 | 189560 | 207217
10 | 46:02.68 | 4:28.58 | 207218 | 227375
11 | 50:31.51 | 3:50.15 | 227376 | 244640
12 | 54:21.66 | 6:54.26 | 244641 | 275716
13 | 61:16.17 | 3:50.43 | 275717 | 293009
Track 1
Filename D:\music\Musicgate's rips\Iris & Ofer Portugaly - The Lord Of Forgivenes - 2013 (High Fidelity)\01 - The Lord Of All.wav
Pre-gap length 0:00:02.00
Peak level 96.7 %
Extraction speed 1.7 X
Track quality 100.0 %
Test CRC B0224A1E
Copy CRC B0224A1E
Track not present in AccurateRip database
Copy OK
Track 2
Filename D:\music\Musicgate's rips\Iris & Ofer Portugaly - The Lord Of Forgivenes - 2013 (High Fidelity)\02 - Shir HaMa'alot.wav
Peak level 96.7 %
Extraction speed 2.0 X
Track quality 100.0 %
Test CRC F3B383F6
Copy CRC F3B383F6
Track not present in AccurateRip database
Copy OK
Track 3
Filename D:\music\Musicgate's rips\Iris & Ofer Portugaly - The Lord Of Forgivenes - 2013 (High Fidelity)\03 - Let It Be.wav
Peak level 96.7 %
Extraction speed 2.2 X
Track quality 100.0 %
Test CRC 9A669212
Copy CRC 9A669212
Track not present in AccurateRip database
Copy OK
Track 4
Filename D:\music\Musicgate's rips\Iris & Ofer Portugaly - The Lord Of Forgivenes - 2013 (High Fidelity)\04 - The Lord Of Forgivenes.wav
Peak level 96.7 %
Extraction speed 2.4 X
Track quality 100.0 %
Test CRC 1691388C
Copy CRC 1691388C
Track not present in AccurateRip database
Copy OK
Track 5
Filename D:\music\Musicgate's rips\Iris & Ofer Portugaly - The Lord Of Forgivenes - 2013 (High Fidelity)\05 - Beloved Of The Soul.wav
Peak level 96.7 %
Extraction speed 2.6 X
Track quality 100.0 %
Test CRC 9C82AC34
Copy CRC 9C82AC34
Track not present in AccurateRip database
Copy OK
Track 6
Filename D:\music\Musicgate's rips\Iris & Ofer Portugaly - The Lord Of Forgivenes - 2013 (High Fidelity)\06 - A Day Will Come.wav
Peak level 96.7 %
Extraction speed 2.7 X
Track quality 100.0 %
Test CRC 627D2ED9
Copy CRC 627D2ED9
Track not present in AccurateRip database
Copy OK
Track 7
Filename D:\music\Musicgate's rips\Iris & Ofer Portugaly - The Lord Of Forgivenes - 2013 (High Fidelity)\07 - The Rose In My Garden.wav
Peak level 96.7 %
Extraction speed 3.0 X
Track quality 100.0 %
Test CRC A945C445
Copy CRC A945C445
Track not present in AccurateRip database
Copy OK
Track 8
Filename D:\music\Musicgate's rips\Iris & Ofer Portugaly - The Lord Of Forgivenes - 2013 (High Fidelity)\08 - Eeroch Mahalal Nivi.wav
Peak level 96.7 %
Extraction speed 2.7 X
Track quality 99.9 %
Test CRC 1166398C
Copy CRC 1166398C
Track not present in AccurateRip database
Copy OK
Track 9
Filename D:\music\Musicgate's rips\Iris & Ofer Portugaly - The Lord Of Forgivenes - 2013 (High Fidelity)\09 - Relaxation.wav
Peak level 96.7 %
Extraction speed 3.1 X
Track quality 100.0 %
Test CRC 303CCFA3
Copy CRC 303CCFA3
Track not present in AccurateRip database
Copy OK
Track 10
Filename D:\music\Musicgate's rips\Iris & Ofer Portugaly - The Lord Of Forgivenes - 2013 (High Fidelity)\10 - When You Come Into The Land.wav
Peak level 96.7 %
Extraction speed 3.3 X
Track quality 100.0 %
Test CRC 43510F28
Copy CRC 43510F28
Track not present in AccurateRip database
Copy OK
Track 11
Filename D:\music\Musicgate's rips\Iris & Ofer Portugaly - The Lord Of Forgivenes - 2013 (High Fidelity)\11 - Oh Happy Day.wav
Peak level 96.7 %
Extraction speed 3.3 X
Track quality 100.0 %
Test CRC 23A659B7
Copy CRC 23A659B7
Track not present in AccurateRip database
Copy OK
Track 12
Filename D:\music\Musicgate's rips\Iris & Ofer Portugaly - The Lord Of Forgivenes - 2013 (High Fidelity)\12 - El Ginat Egoz.wav
Peak level 96.7 %
Extraction speed 3.4 X
Track quality 99.9 %
Test CRC 45D9E14C
Copy CRC 45D9E14C
Track not present in AccurateRip database
Copy OK
Track 13
Filename D:\music\Musicgate's rips\Iris & Ofer Portugaly - The Lord Of Forgivenes - 2013 (High Fidelity)\13 - New Horison.wav
Pre-gap length 0:00:00.01
Peak level 96.7 %
Extraction speed 3.6 X
Track quality 100.0 %
Test CRC 2443A815
Copy CRC 2443A815
Track not present in AccurateRip database
Copy OK
None of the tracks are present in the AccurateRip database
No errors occurred
End of status report
==== Log checksum 2D147690E92CEE303C6BA853F0C52FD42E92E71407CCC301D3304912D11AAD0B ====

REM GENRE "Israeli jazz & gospel"
REM DATE 2013
REM DISCID BB0F420D
REM COMMENT "ExactAudioCopy v1.0b3"
PERFORMER "Iris & Ofer Portugaly"
TITLE "The Lord Of Forgivenes"
FILE "01 - The Lord Of All.wav" WAVE
TRACK 01 AUDIO
TITLE "The Lord Of All"
PERFORMER "Iris & Ofer Portugaly"
FLAGS DCP
INDEX 01 00:00:00
FILE "02 - Shir HaMa'alot.wav" WAVE
TRACK 02 AUDIO
TITLE "Shir HaMa'alot"
PERFORMER "Iris & Ofer Portugaly"
FLAGS DCP
INDEX 01 00:00:00
FILE "03 - Let It Be.wav" WAVE
TRACK 03 AUDIO
TITLE "Let It Be"
PERFORMER "Iris & Ofer Portugaly"
FLAGS DCP
INDEX 01 00:00:00
FILE "04 - The Lord Of Forgivenes.wav" WAVE
TRACK 04 AUDIO
TITLE "The Lord Of Forgivenes"
PERFORMER "Iris & Ofer Portugaly"
FLAGS DCP
INDEX 01 00:00:00
FILE "05 - Beloved Of The Soul.wav" WAVE
TRACK 05 AUDIO
TITLE "Beloved Of The Soul"
PERFORMER "Iris & Ofer Portugaly"
FLAGS DCP
INDEX 01 00:00:00
FILE "06 - A Day Will Come.wav" WAVE
TRACK 06 AUDIO
TITLE "A Day Will Come"
PERFORMER "Iris & Ofer Portugaly"
FLAGS DCP
INDEX 01 00:00:00
FILE "07 - The Rose In My Garden.wav" WAVE
TRACK 07 AUDIO
TITLE "The Rose In My Garden"
PERFORMER "Iris & Ofer Portugaly"
FLAGS DCP
INDEX 01 00:00:00
FILE "08 - Eeroch Mahalal Nivi.wav" WAVE
TRACK 08 AUDIO
TITLE "Eeroch Mahalal Nivi"
PERFORMER "Iris & Ofer Portugaly"
FLAGS DCP
INDEX 01 00:00:00
FILE "09 - Relaxation.wav" WAVE
TRACK 09 AUDIO
TITLE "Relaxation"
PERFORMER "Iris & Ofer Portugaly"
FLAGS DCP
INDEX 01 00:00:00
FILE "10 - When You Come Into The Land.wav" WAVE
TRACK 10 AUDIO
TITLE "When You Come Into The Land"
PERFORMER "Iris & Ofer Portugaly"
FLAGS DCP
INDEX 01 00:00:00
FILE "11 - Oh Happy Day.wav" WAVE
TRACK 11 AUDIO
TITLE "Oh Happy Day"
PERFORMER "Iris & Ofer Portugaly"
FLAGS DCP
INDEX 01 00:00:00
FILE "12 - El Ginat Egoz.wav" WAVE
TRACK 12 AUDIO
TITLE "El Ginat Egoz"
PERFORMER "Iris & Ofer Portugaly"
FLAGS DCP
INDEX 01 00:00:00
TRACK 13 AUDIO
TITLE "New Horison"
PERFORMER "Iris & Ofer Portugaly"
FLAGS DCP
INDEX 00 06:54:25
FILE "13 - New Horison.wav" WAVE
INDEX 01 00:00:00



[CUETools log; Date: 2/27/2018 7:40:27 AM; Version: 2.1.5]
[CTDB TOCID: 5I7qxth23MA1wVZSY5xOXIAp1AI-] disk not present in database.
[AccurateRip ID: 001f2ccb-013a9309-bb0f420d] found.
Track [ CRC | V2 ] Status
01 [baef384f|b571e75b] (0 1/1) Accurately ripped
02 [36a9a904|d80be8dc] (0 1/1) Accurately ripped
03 [83423f5e|056be3cc] (0 1/1) Accurately ripped
04 [70543e12|1f367186] (0 1/1) Accurately ripped
05 [75cfc49e|cc5c7be7] (0 1/1) Accurately ripped
06 [475c2495|2cd68488] (0 1/1) Accurately ripped
07 [a473c762|bc21b1b3] (0 1/1) Accurately ripped
08 [adbfba5c|f04584ad] (0 1/1) Accurately ripped
09 [c773dd59|410ce917] (0 1/1) Accurately ripped
10 [35cfd38f|08dc896b] (0 1/1) Accurately ripped
11 [8e1d8892|36671e70] (0 1/1) Accurately ripped
12 [65088bfd|9ee6bd64] (0 1/1) Accurately ripped
13 [33ca81db|13c9793a] (0 1/1) Accurately ripped
Track Peak [ CRC32 ] [W/O NULL] [ LOG ]
-- 96.7 [2EF35AAC] [D16002A6]
01 96.7 [B0224A1E] [A0F31BBE] CRC32
02 96.7 [F3B383F6] [9162DDA3] CRC32
03 96.7 [9A669212] [C1B528B4] CRC32
04 96.7 [1691388C] [9A398185] CRC32
05 96.7 [9C82AC34] [601F4418] CRC32
06 96.7 [627D2ED9] [DCAE072A] CRC32
07 96.7 [A945C445] [F1719047] CRC32
08 96.7 [1166398C] [4CE16D02] CRC32
09 96.7 [303CCFA3] [4F129693] CRC32
10 96.7 [43510F28] [F7A6478F] CRC32
11 96.7 [23A659B7] [CEC1256E] CRC32
12 96.7 [45D9E14C] [E3D320C0] CRC32
13 96.7 [2443A815] [EC7254CD] CRC32

foobar2000 1.3.10 / Замер динамического диапазона (DR) 1.1.1
Дата отчёта: 2018-04-17 08:46:21
--------------------------------------------------------------------------------
Анализ: Iris & Ofer Portugaly / The Lord Of Forgivenes
--------------------------------------------------------------------------------
DR Пики RMS Продолжительность трека
--------------------------------------------------------------------------------
DR9 -0.28 дБ -11.01 дБ 3:37 01-The Lord Of All
DR9 -0.28 дБ -11.77 дБ 4:36 02-Shir HaMa'alot
DR10 -0.29 дБ -12.36 дБ 5:23 03-Let It Be
DR8 -0.28 дБ -10.78 дБ 5:22 04-The Lord Of Forgivenes
DR8 -0.28 дБ -10.08 дБ 5:14 05-Beloved Of The Soul
DR9 -0.28 дБ -11.80 дБ 4:31 06-A Day Will Come
DR8 -0.28 дБ -10.72 дБ 8:33 07-The Rose In My Garden
DR9 -0.29 дБ -10.67 дБ 4:51 08-Eeroch Mahalal Nivi
DR10 -0.29 дБ -12.55 дБ 3:55 09-Relaxation
DR7 -0.28 дБ -9.13 дБ 4:29 10-When You Come Into The Land
DR9 -0.28 дБ -11.18 дБ 3:50 11-Oh Happy Day
DR8 -0.28 дБ -11.37 дБ 6:54 12-El Ginat Egoz
DR10 -0.29 дБ -13.47 дБ 3:51 13-New Horison
--------------------------------------------------------------------------------
Количество треков: 13
Реальные значения DR: DR9
Частота: 44100 Гц
Каналов: 2
Разрядность: 16
Битрейт: 909 кбит/с
Кодек: FLAC
================================================================================






In "Hitragut": Flutes - Tali Rubinstein; Percussion - Avi Agababa
In "Yom Yavo": Drums - Shalev Ne'eman
Iris Portugaly - voice & drums;
Ofer Portugaly - piano, voice, musical direction & arrangements;
Eli Benacot - EWI;
Yaniv Taichman - oud & guitars;
Noa Ayali - cello;
Oded Goldshmidt - bass;
Shalev Ne'eman- percussion;
The Gospel Choir: Sopranos - Liora Hanukoglu-Gonzalez, Keren Eilenberg, Chen Yamin, Sigal Levy ; Altos - Michal Guy, Yael Mintz, Maya Biran; Tenors - Amit Deitchman, Gil Moses ; Bass -Yossi Hillel, Nadav Hazut;
Musical arrangement & productions: Ofer Portugaly


#777
Жанр: Jazz, Jazz vocal, Jazz pop
Носитель: STREAM
Год издания оригинала: 2017
Издатель (лейбл): Ofer Protugaly BY PIL LTD
Страна исполнителя (группы): Israel
Наличие сканов в содержимом раздачи: From Discogs
Источник (Дистрибьютор): Deezer
Трэклист:
1. Ohad Hitman ( א ו ה ד ח י ט מ ן) - Tell Him ( ת ג י ד י ל ו) (Ohad Hitman)
2. Danny Robas ( ד נ י ר ו ב ס) - I'm Coming Home from the Night ( א נ י ב א ה ב י ת ה מ ן ה ל י ל ה) (Danny Robas)
3. Yehudit Ravitz ( י ה ו ד י ת ר ב י ץ) - A Gardeners are Sad Today ( ה נ ג נ י ם ה י ו ם ע צ ו ב י ם) (Lea Goldberg - Yehudit Ravitz)
4. Eli Magen ( א ל י מ ג ן) - How High Is The Tree ( ה ע ץ ה ו א ג ב ו ה) (Hanoch Levin - Zohar Levy)
5. Miki Gavrielov ( מ י ק י ג ב ר י א ל ו ב) - I See Her Walking ( א נ י ר ו א ה א ו ת ה ב ד ר ך ל ג י מ נ ס י ה) (Yaakov Rotblit - Miki Gavrielov)
6. Doron Talmon ( ד ו ר ו ן ט ל מ ו ן) - How Can You Not Fall In Love? ( א י ך א פ ש ר ש ל א) (Doron Talmon)
7. Leah Shabat ( ל א ה ש ב ת) - Aiways Waiting For You ( ת מ י ד י ח כ ו ל ך)
8. Sagiv Cohen ( ס ג י ב כ ה ן) - Good Will Watch You ( י ש ק ף) (Yehosef Ben Israel - Sagiv Cohen)
9. Din Din Aviv ( ד י ן ד י ן א ב י ב) - Looks Familiar From Way Back ( מ ו כ ר ת ל י מ פ ע ם)
10. Alon & Yehuda Eder ( א ל ו ן ו י ה ו ד ה ע ד ר) - Some Love Can Do No Harm ( ק צ ת א ה ב ה ל א ת ז י ק) (Alon Eder)
11. Sagiv Cohen & Leah Shabat ( ס ג י ב כ ה ן ו ל א ה ש ב ת) - From A Far ( מ ה מ ר ח ק י ם) (Sagiv Cohen)
12. Nathan Cohen & Dafna Levy ( נ ת ן כ ה ן ו ד פ נ ה ל ו י) - Two Voices ( ש נ י ק ו ל ו ת) (Ehud Manor - Nathan Cohen)
13. Iris Portugaly With Yossy Fine & Ben Aylon ( א י ר י ס פ ו ר ט ו ג ל י ע ם י ו ס י פ י י ן ו ב ן א י ל ו ן) - I Love Jazz (Ofer Portugaly)
Musical arrangements & Production: Ofer Portugaly


-----------------------
DON'T MODIFY THIS FILE
-----------------------
PERFORMER: auCDtect Task Manager, ver. 1.6.0 RC1 build 1.6.0.1
Copyright (c) 2008-2010 y-soft. All rights reserved
http://y-soft.org
ANALYZER: auCDtect: CD records authenticity detector, version 0.8.2
Copyright (c) 2004 Oleg Berngardt. All rights reserved.
Copyright (c) 2004 Alexander Djourik. All rights reserved.
FILE: 13 I love Jazz.flac
Size: 31682983 Hash: 464296F75EF3369F43C2DD2D40C7C8D4 Accuracy: -m0
Conclusion: CDDA 100%
Signature: 0E9EEEDC1FF982261126A834BA87ABB1836BE7AC
FILE: 12 ש נ י ק ו ל ו ת.flac
Size: 39297234 Hash: 82D5005711DDF34DE4C4D777A578765C Accuracy: -m0
Conclusion: CDDA 100%
Signature: F6C594023FE857A7496BE1E8B1464F7D446F7B34
FILE: 11 מ ה מ ר ח ק י ם.flac
Size: 36330014 Hash: 34F7302966DEE4024F6E453B5F380A0D Accuracy: -m0
Conclusion: CDDA 100%
Signature: 102F8FC17079AFE2B24A991EB7EED7EF8F997074
FILE: 10 ק צ ת א ה ב ה ל א ת ז י ק.flac
Size: 26801602 Hash: FA6155EC2FB8DFCB9B0D4918A80838D9 Accuracy: -m0
Conclusion: CDDA 100%
Signature: 011172704D3455DB892DD259467418A95104D0F9
FILE: 09 מ ו כ ר ת ל י מ פ ע ם.flac
Size: 30889929 Hash: 1A2FD48D81618802CC628E3B47E96207 Accuracy: -m0
Conclusion: CDDA 100%
Signature: 4BA099B49423DD6724653BFE12BCA8E1612E55FE
FILE: 08 י ש ק ף.flac
Size: 49387668 Hash: 920C93917FFDC1AC67E05F4F6FD9DB1E Accuracy: -m0
Conclusion: CDDA 100%
Signature: D373E92BBC45C2B7E0BBE0EA85E5C0134973EAA6
FILE: 07 ת מ י ד י ח כ ו ל ך.flac
Size: 31184288 Hash: 6A4CC62E141260A759381C54DA682A02 Accuracy: -m0
Conclusion: CDDA 100%
Signature: 54859E01FD46EFD1382BC220F82D76B79298713B
FILE: 06 א י ך א פ ש ר ש ל א.flac
Size: 44953741 Hash: CECBBEF3EC9180472917DC8EDD4F44AB Accuracy: -m0
Conclusion: CDDA 100%
Signature: DDC014FC9E50630AC251783C8FAC8C279D243BA7
FILE: 05 א נ י ר ו א ה א ו ת ה ב ד ר ך ל ג י מ נ ס י ה.flac
Size: 38894281 Hash: C68E6BE88B47D2D6A4C522E2DC1E5593 Accuracy: -m0
Conclusion: CDDA 100%
Signature: FC6F5E3F4FE3B353798431487A8AE760B801BB1B
FILE: 04 ה ע ץ ה ו א ג ב ו ה.flac
Size: 29757142 Hash: 58D14F0609E3534DB1CE32EDF0E7D0AC Accuracy: -m0
Conclusion: CDDA 100%
Signature: EC67043F3D3557A57AC4F972353E1668D05281E1
FILE: 03 ה ג נ נ י ם ה י ו ם ע צ ו ב י ם.flac
Size: 30362099 Hash: 6152F84BADFD486CC03FE072A978E66A Accuracy: -m0
Conclusion: CDDA 100%
Signature: E89E27178956DFAB2D15D409233817DC076067F3
FILE: 02 א נ י ב א ה ב י ת ה מ ה ל י ל ה.flac
Size: 32849447 Hash: 60BAF762CA260E4C428857AFE7B1E6F1 Accuracy: -m0
Conclusion: CDDA 100%
Signature: D19A95434D6ADAA8745ED0006A417831CEC6785C
FILE: 01 ת ג י ד י ל ו.flac
Size: 30792919 Hash: 18890ADD51FB92DDF7DCDDFE94AA55FE Accuracy: -m0
Conclusion: CDDA 100%
Signature: 0BC62BDE3FC517FCA2BA2A5C0C0361AA6E01E156


foobar2000 1.5.5 / Dynamic Range Meter 1.1.1
log date: 2020-12-18 11:20:56
--------------------------------------------------------------------------------
Analyzed: Ofer Portugaly, Danny Robas / ע ו ש י ם ג' א ז ע ם ע ו פ ר פ ו ר ט ו ג ל י (1)
Ofer Portugaly, Din Din Aviv / ע ו ש י ם ג' א ז ע ם ע ו פ ר פ ו ר ט ו ג ל י (2)
Ofer Portugaly, Eli Magen, Sagiv Cohen / ע ו ש י ם ג' א ז ע ם ע ו פ ר פ ו ר ט ו ג ל י (3-4)
Ofer Portugaly, Eli Magen / ע ו ש י ם ג' א ז ע ם ע ו פ ר פ ו ר ט ו ג ל י (5-6)
Ofer Portugaly, Iris Portugaly / ע ו ש י ם ג' א ז ע ם ע ו פ ר פ ו ר ט ו ג ל י (7)
Ofer Portugaly, Ohad Hitman / ע ו ש י ם ג' א ז ע ם ע ו פ ר פ ו ר ט ו ג ל י (8)
Ofer Portugaly, Sagiv Cohen / ע ו ש י ם ג' א ז ע ם ע ו פ ר פ ו ר ט ו ג ל י (9-10)
Ofer Portugaly, Yehudit Ravitz / ע ו ש י ם ג' א ז ע ם ע ו פ ר פ ו ר ט ו ג ל י (11)
Ofer Portugaly, ד ו ר ו ן ט ל מ ו ן / ע ו ש י ם ג' א ז ע ם ע ו פ ר פ ו ר ט ו ג ל י (12)
Ofer Portugaly / ע ו ש י ם ג' א ז ע ם ע ו פ ר פ ו ר ט ו ג ל י (13)
--------------------------------------------------------------------------------
DR Peak RMS Duration Track
--------------------------------------------------------------------------------
DR8 -0.07 dB -10.55 dB 4:44 02- א נ י ב א ה ב י ת ה מ ה ל י ל ה
DR7 -0.01 dB -9.10 dB 4:22 09- מ ו כ ר ת ל י מ פ ע ם
DR8 -0.05 dB -10.75 dB 5:13 11- מ ה מ ר ח ק י ם
DR8 -0.04 dB -9.68 dB 5:19 12- ש נ י ק ו ל ו ת
DR9 -0.07 dB -10.94 dB 4:39 04- ה ע ץ ה ו א ג ב ו ה
DR7 -0.05 dB -9.03 dB 4:26 07- ת מ י ד י ח כ ו ל ך
DR10 -0.05 dB -11.89 dB 4:32 13-I love Jazz
DR7 -0.02 dB -9.86 dB 4:23 01- ת ג י ד י ל ו
DR6 0.00 dB -8.32 dB 6:50 08- י ש ק ף
DR7 -0.06 dB -9.87 dB 4:06 10- ק צ ת א ה ב ה ל א ת ז י ק
DR8 -0.05 dB -10.48 dB 4:15 03- ה ג נ נ י ם ה י ו ם ע צ ו ב י ם
DR8 0.00 dB -10.47 dB 6:30 06- א י ך א פ ש ר ש ל א?
DR8 -0.01 dB -10.44 dB 5:55 05- א נ י ר ו א ה א ו ת ה ב ד ר ך ל ג י מ נ ס י ה
--------------------------------------------------------------------------------
Number of tracks: 13
Official DR value: DR8
Samplerate: 44100 Hz
Channels: 2
Bits per sample: 16
Bitrate: 860 kbps
Codec: FLAC
================================================================================




Ofer Portugaly - Piano
Yotam Silberstein - Guitar
Eli Magen - Bass
Eviatar Slivnik - Drums
Joca Perpignan - Percussion
Yaakov Amar - Trumpet & Flugelhorn
Yuval Drabkin - Tenor Sax
Oded Meir - Trombone
Elia Yalin & Najda Perl - Violins
Victor Kristosov - Viola
Lev Matikov - Cello
The Gospel Choir: Lior Kodman, Chen Yamin & Reut Levi – soprano; Michal Guy, Yael Mintz & Keren Paz – alto; Gil Moses & Amit Daitshman – tenor; Yossi Hillel & Shimon Smith – Bass.
On 13 only:
Iris Portugaly - Vocals & Drums
Ofer Portugaly - Fender Rhodes
Yossy Fine - Bass
Ben Aylon - Percussion



2020-12-30 12:00
Профиль
  • Торрент
Автор: Direktor_75 Хэш: ---
Добавлен: 2020-12-30 12:00 Приватный: Нет (DHT включён)
Статус: Проверен
Размер: 2.4 ГБ (2 572 249 075 байт)
Изменил:
---
Скачали: 0 (Раздающих: 0%)
Причина:
---
Здоровье: 100%
Сидеров: 1 Личеров: 0
Скорость раздачи: 0 байт/сек Скорость скачивания: 0 байт/сек
Последний сидер: 10 дней 9 часов 40 минут 36 секунд назад Последний личер: Нет
Для скачивания торрента необходимо зарегистрироваться или войти на трекер.
Показать сообщения за:  Поле сортировки  
Ответить на тему   [ 1 сообщение ] 

Кто сейчас на конференции

Сейчас этот форум просматривают: нет зарегистрированных пользователей и гости: 1


Вы не можете начинать темы
Вы не можете отвечать на сообщения
Вы не можете редактировать свои сообщения
Вы не можете удалять свои сообщения
Вы не можете добавлять вложения

Найти:
Перейти:  
cron
Создано на основе phpBB® Forum Software © phpBB Group
ppkBB3cker v.2.5 © 2008-2021 @ PPK | Icon Theme by Everaldo.com Design Studio
Designed by ST Software.
Русская поддержка phpBB
[ Time : 0.166s | 18 Queries | GZIP : Off ]
Ресурс не предоставляет электронные версии произведений, а занимается лишь коллекционированием и каталогизацией ссылок, присылаемых и публикуемых на форуме нашими читателями. Если вы являетесь правообладателем какого-либо представленного материала и не желаете чтобы ссылка на него находилась в нашем каталоге, свяжитесь с нами и мы незамедлительно удалим её. Файлы для обмена на трекере предоставлены пользователями сайта, и администрация не несёт ответственности за их содержание. Просьба не заливать файлы, защищенные авторскими правами, а также файлы нелегального содержания!
tracker_cron Яндекс.Метрика