Сообщения без ответов | Активные темы Текущее время: 2024-07-14 20:55



Ответить на тему  [ Сообщений: 2 ] 
Candy Dulfer - Top 40 Candy Dulfer: Her Ultimate Top 40 Collection (Smooth Jazz) [CD](2 CD) - 2018, FLAC (tracks+.cue), lossless 
Автор Сообщение
Релизер
Релизер
Аватара пользователя
Раздал: 676.82 ГБ
Скачал: 45.23 ГБ
Ратио: 1018.062


Зарегистрирован: 2020-05-07 22:22
Сообщения: 2319
Ответить с цитатой 
Candy Dulfer
- Top 40 Candy Dulfer: Her Ultimate Top 40 Collection -


#777

Жанр: Smooth Jazz
Носитель: CD
Страна-производитель диска (релиза): EU
Год издания: 2018
Издатель (лейбл): Sony Music
Номер по каталогу: 88985340212
Аудиокодек: FLAC (*.flac)
Тип рипа: tracks+.cue
Продолжительность: 02:35:39
Источник: redacted
Наличие сканов в содержимом раздачи: да
01. Lily Was Here (Dave Stewart feat. Candy Dulfer) (4:20)
02. Saxuality (Super Sax Radio Mix) (4:12)
03. Heavenly City (4:09)
04. So What (4:55)
05. Sax-A-Go-Go (3:58)
06. Pick Up the Pieces (4:02)
07. 2 Funky (4:48)
08. I Can't Make You Love Me (4:35)
09. Mister Marvin (5:37)
10. Wake Me When It's Over (feat. David Sanborn & Tony Scott) (3:40)
11. I.L.U. (4:40)
12. Get Funky (4:48)
13. 2 Miles (feat. Tony Scott) (6:18)
14. Saxy Mood (Vanki's Mix) (4:22)
15. Wish You Were Here (4:16)
16. Gititon (4:34)
17. Smooth (4:35)
Код:
Exact Audio Copy V1.3 from 2. September 2016
EAC extraction logfile from 18. January 2019, 9:02
Candy Dulfer / Her Ultimate Top 40 Collection (Disc 1)
Used drive  : PLEXTOR PX-891SAF   Adapter: 1  ID: 0
Read mode               : Secure
Utilize accurate stream : Yes
Defeat audio cache      : Yes
Make use of C2 pointers : No
Read offset correction                      : 6
Overread into Lead-In and Lead-Out          : No
Fill up missing offset samples with silence : Yes
Delete leading and trailing silent blocks   : No
Null samples used in CRC calculations       : Yes
Used interface                              : Native Win32 interface for Win NT & 2000
Gap handling                                : Appended to previous track
Used output format              : User Defined Encoder
Selected bitrate                : 1024 kBit/s
Quality                         : High
Add ID3 tag                     : No
Command line compressor         : C:\Program Files (x86)\Exact Audio Copy\Flac\flac.exe
Additional command line options : -8 -V -T "ARTIST=%artist%" -T "TITLE=%title%" -T "ALBUM=%albumtitle%" -T "DATE=%year%" -T "TRACKNUMBER=%tracknr%" -T "GENRE=%genre%" -T "PERFORMER=%albuminterpret%" -T "COMPOSER=%composer%" %haslyrics%--tag-from-file=LYRICS="%lyricsfile%"%haslyrics% -T "ALBUMARTIST=%albumartist%" -T "DISCNUMBER=%cdnumber%" -T "TOTALDISCS=%totalcds%" -T "TOTALTRACKS=%numtracks%" -T "COMMENT=%comment%" %source% -o %dest%
TOC of the extracted CD
     Track |   Start  |  Length  | Start sector | End sector
    ---------------------------------------------------------
        1  |  0:00.00 |  4:20.09 |         0    |    19508
        2  |  4:20.09 |  4:12.18 |     19509    |    38426
        3  |  8:32.27 |  4:08.69 |     38427    |    57095
        4  | 12:41.21 |  4:54.63 |     57096    |    79208
        5  | 17:36.09 |  3:57.65 |     79209    |    97048
        6  | 21:33.74 |  4:01.42 |     97049    |   115165
        7  | 25:35.41 |  4:48.08 |    115166    |   136773
        8  | 30:23.49 |  4:35.00 |    136774    |   157398
        9  | 34:58.49 |  5:36.58 |    157399    |   182656
       10  | 40:35.32 |  3:39.56 |    182657    |   199137
       11  | 44:15.13 |  4:40.11 |    199138    |   220148
       12  | 48:55.24 |  4:47.67 |    220149    |   241740
       13  | 53:43.16 |  6:17.39 |    241741    |   270054
       14  | 60:00.55 |  4:21.54 |    270055    |   289683
       15  | 64:22.34 |  4:15.65 |    289684    |   308873
       16  | 68:38.24 |  4:33.49 |    308874    |   329397
       17  | 73:11.73 |  4:35.13 |    329398    |   350035
Track  1
     Filename D:\#New Wav + flac\Candy Dulfer - Her Ultimate Top 40 Collection\cd 1\01. Candy Dulfer feat. Dave Stewart - Lily Was Here.wav
     Pre-gap length  0:00:02.00
     Peak level 96.6 %
     Extraction speed 5.8 X
     Track quality 100.0 %
     Test CRC 751FD884
     Copy CRC 751FD884
     Accurately ripped (confidence 2)  [FA083D1A]  (AR v2)
     Copy OK
Track  2
     Filename D:\#New Wav + flac\Candy Dulfer - Her Ultimate Top 40 Collection\cd 1\02. Candy Dulfer - Saxuality (Super Sax Radio Mix).wav
     Pre-gap length  0:00:01.00
     Peak level 96.6 %
     Extraction speed 6.4 X
     Track quality 100.0 %
     Test CRC D44BB31A
     Copy CRC D44BB31A
     Accurately ripped (confidence 2)  [09A591CD]  (AR v2)
     Copy OK
Track  3
     Filename D:\#New Wav + flac\Candy Dulfer - Her Ultimate Top 40 Collection\cd 1\03. Candy Dulfer - Heavenly City.wav
     Pre-gap length  0:00:01.00
     Peak level 95.7 %
     Extraction speed 6.7 X
     Track quality 100.0 %
     Test CRC 790C443F
     Copy CRC 790C443F
     Accurately ripped (confidence 2)  [33605DE0]  (AR v2)
     Copy OK
Track  4
     Filename D:\#New Wav + flac\Candy Dulfer - Her Ultimate Top 40 Collection\cd 1\04. Candy Dulfer - So What.wav
     Pre-gap length  0:00:01.00
     Peak level 96.6 %
     Extraction speed 7.4 X
     Track quality 100.0 %
     Test CRC ACEF8CBD
     Copy CRC ACEF8CBD
     Accurately ripped (confidence 2)  [37FEA432]  (AR v2)
     Copy OK
Track  5
     Filename D:\#New Wav + flac\Candy Dulfer - Her Ultimate Top 40 Collection\cd 1\05. Candy Dulfer - Sax-A-Go-Go.wav
     Pre-gap length  0:00:01.00
     Peak level 96.6 %
     Extraction speed 7.6 X
     Track quality 100.0 %
     Test CRC EA7D740A
     Copy CRC EA7D740A
     Accurately ripped (confidence 2)  [409D188F]  (AR v2)
     Copy OK
Track  6
     Filename D:\#New Wav + flac\Candy Dulfer - Her Ultimate Top 40 Collection\cd 1\06. Candy Dulfer - Pick Up The Pieces.wav
     Pre-gap length  0:00:01.00
     Peak level 96.6 %
     Extraction speed 7.9 X
     Track quality 100.0 %
     Test CRC 9A723E2D
     Copy CRC 9A723E2D
     Accurately ripped (confidence 2)  [8A377E16]  (AR v2)
     Copy OK
Track  7
     Filename D:\#New Wav + flac\Candy Dulfer - Her Ultimate Top 40 Collection\cd 1\07. Candy Dulfer - 2 Funky.wav
     Pre-gap length  0:00:01.00
     Peak level 96.6 %
     Extraction speed 8.5 X
     Track quality 100.0 %
     Test CRC 5FBCF2F3
     Copy CRC 5FBCF2F3
     Accurately ripped (confidence 2)  [45CEEE4E]  (AR v2)
     Copy OK
Track  8
     Filename D:\#New Wav + flac\Candy Dulfer - Her Ultimate Top 40 Collection\cd 1\08. Candy Dulfer - I Can't Make You Love Me.wav
     Pre-gap length  0:00:01.00
     Peak level 73.3 %
     Extraction speed 8.7 X
     Track quality 100.0 %
     Test CRC 00A83CD5
     Copy CRC 00A83CD5
     Accurately ripped (confidence 2)  [94ADA452]  (AR v2)
     Copy OK
Track  9
     Filename D:\#New Wav + flac\Candy Dulfer - Her Ultimate Top 40 Collection\cd 1\09. Candy Dulfer - Mister Marvin.wav
     Pre-gap length  0:00:01.00
     Peak level 92.3 %
     Extraction speed 9.3 X
     Track quality 100.0 %
     Test CRC 8377DC0E
     Copy CRC 8377DC0E
     Accurately ripped (confidence 2)  [A6F1B9AC]  (AR v2)
     Copy OK
Track 10
     Filename D:\#New Wav + flac\Candy Dulfer - Her Ultimate Top 40 Collection\cd 1\10. Candy Dulfer feat. David Sanborn & Tony Scott - Wake Me When It's Over.wav
     Pre-gap length  0:00:01.00
     Peak level 95.5 %
     Extraction speed 7.6 X
     Track quality 99.9 %
     Test CRC 230F8681
     Copy CRC 230F8681
     Accurately ripped (confidence 2)  [2819AE3E]  (AR v2)
     Copy OK
Track 11
     Filename D:\#New Wav + flac\Candy Dulfer - Her Ultimate Top 40 Collection\cd 1\11. Candy Dulfer - I.L.U..wav
     Pre-gap length  0:00:01.00
     Peak level 96.6 %
     Extraction speed 9.8 X
     Track quality 100.0 %
     Test CRC 51BABCF7
     Copy CRC 51BABCF7
     Accurately ripped (confidence 2)  [32B5014D]  (AR v2)
     Copy OK
Track 12
     Filename D:\#New Wav + flac\Candy Dulfer - Her Ultimate Top 40 Collection\cd 1\12. Candy Dulfer - Get Funky.wav
     Pre-gap length  0:00:01.00
     Peak level 96.6 %
     Extraction speed 10.1 X
     Track quality 100.0 %
     Test CRC 7A8373E8
     Copy CRC 7A8373E8
     Accurately ripped (confidence 2)  [7736161F]  (AR v2)
     Copy OK
Track 13
     Filename D:\#New Wav + flac\Candy Dulfer - Her Ultimate Top 40 Collection\cd 1\13. Candy Dulfer feat. Tony Scott - 2 Miles.wav
     Pre-gap length  0:00:01.00
     Peak level 96.6 %
     Extraction speed 10.7 X
     Track quality 100.0 %
     Test CRC 54715102
     Copy CRC 54715102
     Accurately ripped (confidence 1)  [7AC2C22B]  (AR v2)
     Copy OK
Track 14
     Filename D:\#New Wav + flac\Candy Dulfer - Her Ultimate Top 40 Collection\cd 1\14. Candy Dulfer - Saxy Mood (Vanki's Mix).wav
     Pre-gap length  0:00:01.00
     Peak level 96.6 %
     Extraction speed 10.5 X
     Track quality 100.0 %
     Test CRC 162F167B
     Copy CRC 162F167B
     Accurately ripped (confidence 2)  [55962ECA]  (AR v2)
     Copy OK
Track 15
     Filename D:\#New Wav + flac\Candy Dulfer - Her Ultimate Top 40 Collection\cd 1\15. Candy Dulfer - Wish You Were Here.wav
     Pre-gap length  0:00:01.00
     Peak level 96.6 %
     Extraction speed 10.9 X
     Track quality 100.0 %
     Test CRC D25F39AD
     Copy CRC D25F39AD
     Accurately ripped (confidence 2)  [4AAE483D]  (AR v2)
     Copy OK
Track 16
     Filename D:\#New Wav + flac\Candy Dulfer - Her Ultimate Top 40 Collection\cd 1\16. Candy Dulfer - Gititon.wav
     Pre-gap length  0:00:01.00
     Peak level 96.6 %
     Extraction speed 11.1 X
     Track quality 100.0 %
     Test CRC 0056C527
     Copy CRC 0056C527
     Accurately ripped (confidence 2)  [7749F220]  (AR v2)
     Copy OK
Track 17
     Filename D:\#New Wav + flac\Candy Dulfer - Her Ultimate Top 40 Collection\cd 1\17. Candy Dulfer - Smooth.wav
     Pre-gap length  0:00:01.00
     Peak level 78.4 %
     Extraction speed 11.5 X
     Track quality 100.0 %
     Test CRC 88733C73
     Copy CRC 88733C73
     Accurately ripped (confidence 2)  [4F3DEBFB]  (AR v2)
     Copy OK
All tracks accurately ripped
No errors occurred
End of status report
---- CUETools DB Plugin V2.1.6
[CTDB TOCID: NjeBvMH2mXol.UEFef3VZrdokXk-] found
Submit result: NjeBvMH2mXol.UEFef3VZrdokXk- has been uploaded
Track | CTDB Status
  1   | (1/1) Accurately ripped
  2   | (1/1) Accurately ripped
  3   | (1/1) Accurately ripped
  4   | (1/1) Accurately ripped
  5   | (1/1) Accurately ripped
  6   | (1/1) Accurately ripped
  7   | (1/1) Accurately ripped
  8   | (1/1) Accurately ripped
  9   | (1/1) Accurately ripped
 10   | (1/1) Accurately ripped
 11   | (1/1) Accurately ripped
 12   | (1/1) Accurately ripped
 13   | (1/1) Accurately ripped
 14   | (1/1) Accurately ripped
 15   | (1/1) Accurately ripped
 16   | (1/1) Accurately ripped
 17   | (1/1) Differs in 4984 samples @04:34:65-04:34:71
If you are sure that your rip contains errors, you can use CUETools to repair it.
==== Log checksum B649DCB9380894E827B9DC39FA6D1077E012F44755637097BB77590DBEE06D15 ====
Код:
REM GENRE Jazz
REM DATE 2018
REM DISCID E7123B11
REM COMMENT "ExactAudioCopy v1.3"
CATALOG 0889853402120
PERFORMER "Candy Dulfer"
TITLE "Top 40 Candy Dulfer: Her Ultimate Top 40 Collection CD1"
FILE "01 - Lily Was Here (Dave Stewart feat. Candy Dulfer).wav" WAVE
  TRACK 01 AUDIO
    TITLE "Lily Was Here (Dave Stewart feat. Candy Dulfer)"
    PERFORMER "Candy Dulfer"
    ISRC GBARL8900064
    INDEX 01 00:00:00
  TRACK 02 AUDIO
    TITLE "Saxuality (Super Sax Radio Mix)"
    PERFORMER "Candy Dulfer"
    ISRC NLA200800012
    INDEX 00 04:19:09
FILE "02 - Saxuality (Super Sax Radio Mix).wav" WAVE
    INDEX 01 00:00:00
  TRACK 03 AUDIO
    TITLE "Heavenly City"
    PERFORMER "Candy Dulfer"
    ISRC NLA200800011
    INDEX 00 04:11:18
FILE "03 - Heavenly City.wav" WAVE
    INDEX 01 00:00:00
  TRACK 04 AUDIO
    TITLE "So What"
    PERFORMER "Candy Dulfer"
    ISRC NLA200200163
    INDEX 00 04:07:69
FILE "04 - So What.wav" WAVE
    INDEX 01 00:00:00
  TRACK 05 AUDIO
    TITLE "Sax-A-Go-Go"
    PERFORMER "Candy Dulfer"
    ISRC NLA200100181
    INDEX 00 04:53:63
FILE "05 - Sax-A-Go-Go.wav" WAVE
    INDEX 01 00:00:00
  TRACK 06 AUDIO
    TITLE "Pick Up the Pieces"
    PERFORMER "Candy Dulfer"
    ISRC NLA209300089
    INDEX 00 03:56:65
FILE "06 - Pick Up the Pieces.wav" WAVE
    INDEX 01 00:00:00
  TRACK 07 AUDIO
    TITLE "2 Funky"
    PERFORMER "Candy Dulfer"
    ISRC NL2093000245
    INDEX 00 04:00:42
FILE "07 - 2 Funky.wav" WAVE
    INDEX 01 00:00:00
  TRACK 08 AUDIO
    TITLE "I Can't Make You Love Me"
    PERFORMER "Candy Dulfer"
    ISRC NL2093000195
    INDEX 00 04:47:08
FILE "08 - I Can't Make You Love Me.wav" WAVE
    INDEX 01 00:00:00
  TRACK 09 AUDIO
    TITLE "Mister Marvin"
    PERFORMER "Candy Dulfer"
    ISRC NLA201000011
    INDEX 00 04:34:00
FILE "09 - Mister Marvin.wav" WAVE
    INDEX 01 00:00:00
  TRACK 10 AUDIO
    TITLE "Wake Me When It's Over (feat. David Sanborn & Tony Scott)"
    PERFORMER "Candy Dulfer"
    ISRC NLA209500031
    INDEX 00 05:35:58
FILE "10 - Wake Me When It's Over (feat. David Sanborn & Tony Scott).wav" WAVE
    INDEX 01 00:00:00
  TRACK 11 AUDIO
    TITLE "I.L.U."
    PERFORMER "Candy Dulfer"
    ISRC DEA819501055
    INDEX 00 03:38:56
FILE "11 - I.L.U..wav" WAVE
    INDEX 01 00:00:00
  TRACK 12 AUDIO
    TITLE "Get Funky"
    PERFORMER "Candy Dulfer"
    ISRC DEA819501061
    INDEX 00 04:39:11
FILE "12 - Get Funky.wav" WAVE
    INDEX 01 00:00:00
  TRACK 13 AUDIO
    TITLE "2 Miles (feat. Tony Scott)"
    PERFORMER "Candy Dulfer"
    ISRC DEA819501058
    INDEX 00 04:46:67
FILE "13 - 2 Miles (feat. Tony Scott).wav" WAVE
    INDEX 01 00:00:00
  TRACK 14 AUDIO
    TITLE "Saxy Mood (Vanki's Mix)"
    PERFORMER "Candy Dulfer"
    ISRC NLA209700021
    INDEX 00 06:16:39
FILE "14 - Saxy Mood (Vanki's Mix).wav" WAVE
    INDEX 01 00:00:00
  TRACK 15 AUDIO
    TITLE "Wish You Were Here"
    PERFORMER "Candy Dulfer"
    ISRC NLA209700027
    INDEX 00 04:20:54
FILE "15 - Wish You Were Here.wav" WAVE
    INDEX 01 00:00:00
  TRACK 16 AUDIO
    TITLE "Gititon"
    PERFORMER "Candy Dulfer"
    ISRC NLA209700025
    INDEX 00 04:14:65
FILE "16 - Gititon.wav" WAVE
    INDEX 01 00:00:00
  TRACK 17 AUDIO
    TITLE "Smooth"
    PERFORMER "Candy Dulfer"
    ISRC NLA209700024
    INDEX 00 04:32:49
FILE "17 - Smooth.wav" WAVE
    INDEX 01 00:00:00
Код:
[CUETools log; Date: 07.11.2019 22:17:07; Version: 2.1.6]
[CTDB TOCID: NjeBvMH2mXol.UEFef3VZrdokXk-] found.
Track | CTDB Status
  1   | (15/15) Accurately ripped
  2   | (15/15) Accurately ripped
  3   | (15/15) Accurately ripped
  4   | (15/15) Accurately ripped
  5   | (15/15) Accurately ripped
  6   | (15/15) Accurately ripped
  7   | (15/15) Accurately ripped
  8   | (15/15) Accurately ripped
  9   | (15/15) Accurately ripped
 10   | (15/15) Accurately ripped
 11   | (15/15) Accurately ripped
 12   | (15/15) Accurately ripped
 13   | (15/15) Accurately ripped
 14   | (15/15) Accurately ripped
 15   | (15/15) Accurately ripped
 16   | (15/15) Accurately ripped
 17   | (14/15) Accurately ripped, or (1/15) differs in 4984 samples @04:34:65-04:34:71
[AccurateRip ID: 002f2f89-0259ed61-e7123b11] found.
Track   [  CRC   |   V2   ] Status
 01     [ac1fbcc7|fa083d1a] (0+4/4) Accurately ripped
 02     [fea3d837|09a591cd] (0+4/4) Accurately ripped
 03     [a2eac6c1|33605de0] (0+4/4) Accurately ripped
 04     [ed66ace6|37fea432] (0+4/4) Accurately ripped
 05     [dac7d534|409d188f] (0+4/4) Accurately ripped
 06     [d2c326b1|8a377e16] (0+4/4) Accurately ripped
 07     [4091c627|45ceee4e] (0+4/4) Accurately ripped
 08     [08920501|94ada452] (0+4/4) Accurately ripped
 09     [bd192611|a6f1b9ac] (0+4/4) Accurately ripped
 10     [362b9741|2819ae3e] (0+4/4) Accurately ripped
 11     [1be3015c|32b5014d] (0+4/4) Accurately ripped
 12     [cd71613c|7736161f] (0+4/4) Accurately ripped
 13     [df1d77c5|7ac2c22b] (0+3/3) Accurately ripped
 14     [a3be9195|55962eca] (0+4/4) Accurately ripped
 15     [426bf139|4aae483d] (0+4/4) Accurately ripped
 16     [ff18a748|7749f220] (0+4/4) Accurately ripped
 17     [537a4f5f|4f3debfb] (0+4/4) Accurately ripped
Track Peak [ CRC32  ] [W/O NULL] [  LOG   ]
 --   96,6 [1D5A6434] [136379FC]
 01   96,6 [751FD884] [0088E99F]   CRC32
 02   96,6 [D44BB31A] [D601FB14]   CRC32
 03   95,7 [790C443F] [57BBC272]   CRC32
 04   96,6 [ACEF8CBD] [09D6B473]   CRC32
 05   96,6 [EA7D740A] [5D078438]   CRC32
 06   96,6 [9A723E2D] [BA908C17]   CRC32
 07   96,6 [5FBCF2F3] [D3348148]   CRC32
 08   73,3 [00A83CD5] [E14555BC]   CRC32
 09   92,3 [8377DC0E] [2558F307]   CRC32
 10   95,5 [230F8681] [2B0EE002]   CRC32
 11   96,6 [51BABCF7] [07508D1D]   CRC32
 12   96,6 [7A8373E8] [01D513BA]   CRC32
 13   96,6 [54715102] [7122A1F3]   CRC32
 14   96,6 [162F167B] [5C4548A2]   CRC32
 15   96,6 [D25F39AD] [672E7326]   CRC32
 16   96,6 [0056C527] [08603DAA]   CRC32
 17   78,4 [88733C73] [C198FC8F]   CRC32
01. For the Love of You (Vanski's Superdooper Dance Mix) (5:02)
02. What Does It Take (To Win Your Love for Me) (feat. Jonathan Butler) (4:17)
03. Nikki's Dream (3:13)
04. Girls Night Out (3:25)
05. Dance 'Till You Bop (5:09)
06. Synchrodestiny (Live) (feat. Dave Stewart) (5:11)
07. What's in Your Head (3:33)
08. Let Me Show You (3:18)
09. Finsbury Park, Cafe 67 (4:42)
10. Summertime (4:29)
11. My Funk (4:57)
12. Don't Go (3:15)
13. First in Line (4:04)
14. Crazy (4:09)
15. Hey Now (4:01)
16. Too Close (6:09)
17. Pick Up the Pieces/Dance Medley (Live) (Ladies of Soul feat. Candy Dulfer) (5:08)
18. Merry Christmas Baby (Trijntje Oosterhuis feat. Candy Dulfer) (3:48)
Код:
Exact Audio Copy V1.3 from 2. September 2016
EAC extraction logfile from 18. January 2019, 9:23
Candy Dulfer / Her Ultimate Top 40 Collection (Disc 2)
Used drive  : PLEXTOR PX-891SAF   Adapter: 1  ID: 0
Read mode               : Secure
Utilize accurate stream : Yes
Defeat audio cache      : Yes
Make use of C2 pointers : No
Read offset correction                      : 6
Overread into Lead-In and Lead-Out          : No
Fill up missing offset samples with silence : Yes
Delete leading and trailing silent blocks   : No
Null samples used in CRC calculations       : Yes
Used interface                              : Native Win32 interface for Win NT & 2000
Gap handling                                : Appended to previous track
Used output format              : User Defined Encoder
Selected bitrate                : 1024 kBit/s
Quality                         : High
Add ID3 tag                     : No
Command line compressor         : C:\Program Files (x86)\Exact Audio Copy\Flac\flac.exe
Additional command line options : -8 -V -T "ARTIST=%artist%" -T "TITLE=%title%" -T "ALBUM=%albumtitle%" -T "DATE=%year%" -T "TRACKNUMBER=%tracknr%" -T "GENRE=%genre%" -T "PERFORMER=%albuminterpret%" -T "COMPOSER=%composer%" %haslyrics%--tag-from-file=LYRICS="%lyricsfile%"%haslyrics% -T "ALBUMARTIST=%albumartist%" -T "DISCNUMBER=%cdnumber%" -T "TOTALDISCS=%totalcds%" -T "TOTALTRACKS=%numtracks%" -T "COMMENT=%comment%" %source% -o %dest%
TOC of the extracted CD
     Track |   Start  |  Length  | Start sector | End sector
    ---------------------------------------------------------
        1  |  0:00.00 |  5:02.25 |         0    |    22674
        2  |  5:02.25 |  4:16.62 |     22675    |    41936
        3  |  9:19.12 |  3:12.51 |     41937    |    56387
        4  | 12:31.63 |  3:25.02 |     56388    |    71764
        5  | 15:56.65 |  5:08.54 |     71765    |    94918
        6  | 21:05.44 |  5:11.06 |     94919    |   118249
        7  | 26:16.50 |  3:32.41 |    118250    |   134190
        8  | 29:49.16 |  3:18.18 |    134191    |   149058
        9  | 33:07.34 |  4:42.24 |    149059    |   170232
       10  | 37:49.58 |  4:29.36 |    170233    |   190443
       11  | 42:19.19 |  4:56.53 |    190444    |   212696
       12  | 47:15.72 |  3:15.02 |    212697    |   227323
       13  | 50:30.74 |  4:03.46 |    227324    |   245594
       14  | 54:34.45 |  4:09.06 |    245595    |   264275
       15  | 58:43.51 |  4:00.66 |    264276    |   282341
       16  | 62:44.42 |  6:08.51 |    282342    |   309992
       17  | 68:53.18 |  5:08.02 |    309993    |   333094
       18  | 74:01.20 |  3:47.52 |    333095    |   350171
Track  1
     Filename D:\#New Wav + flac\Candy Dulfer - Her Ultimate Top 40 Collection\cd 2\01. Candy Dulfer - For The Love Of You (Vanski's Superdooper Dance Mix).wav
     Pre-gap length  0:00:02.00
     Peak level 95.5 %
     Extraction speed 5.9 X
     Track quality 100.0 %
     Test CRC DAE29545
     Copy CRC DAE29545
     Accurately ripped (confidence 2)  [16874C4F]  (AR v2)
     Copy OK
Track  2
     Filename D:\#New Wav + flac\Candy Dulfer - Her Ultimate Top 40 Collection\cd 2\02. Candy Dulfer & Jonathan Butler - What Does It Take (To Win Your Love Dor Me).wav
     Pre-gap length  0:00:01.00
     Peak level 96.3 %
     Extraction speed 6.4 X
     Track quality 100.0 %
     Test CRC 94A4F50C
     Copy CRC 94A4F50C
     Accurately ripped (confidence 2)  [81ABDBB9]  (AR v2)
     Copy OK
Track  3
     Filename D:\#New Wav + flac\Candy Dulfer - Her Ultimate Top 40 Collection\cd 2\03. Candy Dulfer - Nikki's Dream.wav
     Pre-gap length  0:00:01.00
     Peak level 95.9 %
     Extraction speed 6.6 X
     Track quality 100.0 %
     Test CRC 20019BE4
     Copy CRC 20019BE4
     Accurately ripped (confidence 2)  [5BC57373]  (AR v2)
     Copy OK
Track  4
     Filename D:\#New Wav + flac\Candy Dulfer - Her Ultimate Top 40 Collection\cd 2\04. Candy Dulfer - Girls Night Out.wav
     Pre-gap length  0:00:01.00
     Peak level 95.9 %
     Extraction speed 6.9 X
     Track quality 100.0 %
     Test CRC E9FFC321
     Copy CRC E9FFC321
     Accurately ripped (confidence 2)  [B7A8D800]  (AR v2)
     Copy OK
Track  5
     Filename D:\#New Wav + flac\Candy Dulfer - Her Ultimate Top 40 Collection\cd 2\05. Candy Dulfer - Dance 'till You Bop.wav
     Pre-gap length  0:00:01.00
     Peak level 87.6 %
     Extraction speed 6.6 X
     Track quality 99.9 %
     Test CRC A3C720D6
     Copy CRC A3C720D6
     Accurately ripped (confidence 2)  [F2910523]  (AR v2)
     Copy OK
Track  6
     Filename D:\#New Wav + flac\Candy Dulfer - Her Ultimate Top 40 Collection\cd 2\06. Candy Dulfer & Dave Stewart - Synchrodestiny (Live).wav
     Pre-gap length  0:00:01.00
     Peak level 96.6 %
     Extraction speed 7.0 X
     Track quality 99.9 %
     Test CRC 59772D27
     Copy CRC 59772D27
     Accurately ripped (confidence 2)  [405FF11B]  (AR v2)
     Copy OK
Track  7
     Filename D:\#New Wav + flac\Candy Dulfer - Her Ultimate Top 40 Collection\cd 2\07. Candy Dulfer - What's In Your Head.wav
     Pre-gap length  0:00:01.00
     Peak level 83.5 %
     Extraction speed 8.1 X
     Track quality 100.0 %
     Test CRC EF1C6B28
     Copy CRC EF1C6B28
     Accurately ripped (confidence 2)  [002319BF]  (AR v2)
     Copy OK
Track  8
     Filename D:\#New Wav + flac\Candy Dulfer - Her Ultimate Top 40 Collection\cd 2\08. Candy Dulfer - Let Me Show You.wav
     Pre-gap length  0:00:01.00
     Peak level 79.3 %
     Extraction speed 8.3 X
     Track quality 100.0 %
     Test CRC 3F674BA4
     Copy CRC 3F674BA4
     Accurately ripped (confidence 2)  [A843C167]  (AR v2)
     Copy OK
Track  9
     Filename D:\#New Wav + flac\Candy Dulfer - Her Ultimate Top 40 Collection\cd 2\09. Candy Dulfer - Finsbury Park, Cafe 67.wav
     Pre-gap length  0:00:01.00
     Peak level 90.6 %
     Extraction speed 9.0 X
     Track quality 100.0 %
     Test CRC 5DE52ED4
     Copy CRC 5DE52ED4
     Accurately ripped (confidence 2)  [ED5A128D]  (AR v2)
     Copy OK
Track 10
     Filename D:\#New Wav + flac\Candy Dulfer - Her Ultimate Top 40 Collection\cd 2\10. Candy Dulfer - Summertime.wav
     Pre-gap length  0:00:01.00
     Peak level 81.2 %
     Extraction speed 9.3 X
     Track quality 100.0 %
     Test CRC 977958CB
     Copy CRC 977958CB
     Accurately ripped (confidence 2)  [55DBCF2B]  (AR v2)
     Copy OK
Track 11
     Filename D:\#New Wav + flac\Candy Dulfer - Her Ultimate Top 40 Collection\cd 2\11. Candy Dulfer - My Funk.wav
     Pre-gap length  0:00:01.00
     Peak level 96.6 %
     Extraction speed 9.7 X
     Track quality 100.0 %
     Test CRC A3F55EE1
     Copy CRC A3F55EE1
     Accurately ripped (confidence 2)  [1A424222]  (AR v2)
     Copy OK
Track 12
     Filename D:\#New Wav + flac\Candy Dulfer - Her Ultimate Top 40 Collection\cd 2\12. Candy Dulfer - Don't Go.wav
     Pre-gap length  0:00:01.00
     Peak level 96.6 %
     Extraction speed 9.5 X
     Track quality 100.0 %
     Test CRC 8F1E003C
     Copy CRC 8F1E003C
     Accurately ripped (confidence 2)  [7B67B123]  (AR v2)
     Copy OK
Track 13
     Filename D:\#New Wav + flac\Candy Dulfer - Her Ultimate Top 40 Collection\cd 2\13. Candy Dulfer - First In Line.wav
     Pre-gap length  0:00:01.00
     Peak level 96.6 %
     Extraction speed 10.2 X
     Track quality 100.0 %
     Test CRC B259A9C4
     Copy CRC B259A9C4
     Accurately ripped (confidence 2)  [E3B9F720]  (AR v2)
     Copy OK
Track 14
     Filename D:\#New Wav + flac\Candy Dulfer - Her Ultimate Top 40 Collection\cd 2\14. Candy Dulfer - Crazy.wav
     Pre-gap length  0:00:01.00
     Peak level 94.4 %
     Extraction speed 10.4 X
     Track quality 100.0 %
     Test CRC 395B417F
     Copy CRC 395B417F
     Accurately ripped (confidence 2)  [AF35161F]  (AR v2)
     Copy OK
Track 15
     Filename D:\#New Wav + flac\Candy Dulfer - Her Ultimate Top 40 Collection\cd 2\15. Candy Dulfer - Hey Now.wav
     Pre-gap length  0:00:01.00
     Peak level 94.4 %
     Extraction speed 10.7 X
     Track quality 100.0 %
     Test CRC 77A6E7C5
     Copy CRC 77A6E7C5
     Accurately ripped (confidence 2)  [205D9151]  (AR v2)
     Copy OK
Track 16
     Filename D:\#New Wav + flac\Candy Dulfer - Her Ultimate Top 40 Collection\cd 2\16. Candy Dulfer - Too Close.wav
     Pre-gap length  0:00:01.00
     Peak level 91.2 %
     Extraction speed 11.5 X
     Track quality 100.0 %
     Test CRC B28B8CCC
     Copy CRC B28B8CCC
     Accurately ripped (confidence 2)  [134F1004]  (AR v2)
     Copy OK
Track 17
     Filename D:\#New Wav + flac\Candy Dulfer - Her Ultimate Top 40 Collection\cd 2\17. Ladies Of Soul - Pick Up The pieces,Dance Medley (Live).wav
     Pre-gap length  0:00:01.00
     Peak level 96.6 %
     Extraction speed 11.6 X
     Track quality 100.0 %
     Test CRC 69B13F3B
     Copy CRC 69B13F3B
     Accurately ripped (confidence 2)  [43D62743]  (AR v2)
     Copy OK
Track 18
     Filename D:\#New Wav + flac\Candy Dulfer - Her Ultimate Top 40 Collection\cd 2\18. Candy Dulfer & Trijntje Oosterhuis - Merry Christmas Baby.wav
     Pre-gap length  0:00:01.00
     Peak level 96.6 %
     Extraction speed 11.2 X
     Track quality 100.0 %
     Test CRC EBAD9D09
     Copy CRC EBAD9D09
     Accurately ripped (confidence 2)  [5F0542CF]  (AR v2)
     Copy OK
All tracks accurately ripped
No errors occurred
End of status report
---- CUETools DB Plugin V2.1.6
[CTDB TOCID: 9c9DquPsaRjmS8o0o1hvuGhQus0-] found
Submit result: 9c9DquPsaRjmS8o0o1hvuGhQus0- has been uploaded
Track | CTDB Status
  1   | (1/1) Accurately ripped
  2   | (1/1) Accurately ripped
  3   | (1/1) Accurately ripped
  4   | (1/1) Accurately ripped
  5   | (1/1) Accurately ripped
  6   | (1/1) Accurately ripped
  7   | (1/1) Accurately ripped
  8   | (1/1) Accurately ripped
  9   | (1/1) Accurately ripped
 10   | (1/1) Accurately ripped
 11   | (1/1) Accurately ripped
 12   | (1/1) Accurately ripped
 13   | (1/1) Accurately ripped
 14   | (1/1) Accurately ripped
 15   | (1/1) Accurately ripped
 16   | (1/1) Accurately ripped
 17   | (1/1) Accurately ripped
 18   | (1/1) Differs in 4304 samples @03:47:29-03:47:39
If you are sure that your rip contains errors, you can use CUETools to repair it.
==== Log checksum 0F436023D96F5F41A68CFDF77EBE8891CF527E24E75C1CF4CE90E19E9B6C68EE ====
Код:
REM GENRE Jazz
REM DATE 2018
REM DISCID 14123C12
REM COMMENT "ExactAudioCopy v1.3"
CATALOG 0889853402120
PERFORMER "Candy Dulfer"
TITLE "Top 40 Candy Dulfer: Her Ultimate Top 40 Collection CD2"
FILE "01 - For the Love of You (Vanski's Superdooper Dance Mix).wav" WAVE
  TRACK 01 AUDIO
    TITLE "For the Love of You (Vanski's Superdooper Dance Mix)"
    PERFORMER "Candy Dulfer"
    ISRC NLA209700022
    INDEX 01 00:00:00
  TRACK 02 AUDIO
    TITLE "What Does It Take (To Win Your Love for Me) (feat. Jonathan Butler)"
    PERFORMER "Candy Dulfer"
    ISRC NLA209900065
    INDEX 00 05:01:25
FILE "02 - What Does It Take (To Win Your Love for Me) (feat. Jonathan Butler).wav" WAVE
    INDEX 01 00:00:00
  TRACK 03 AUDIO
    TITLE "Nikki's Dream"
    PERFORMER "Candy Dulfer"
    ISRC NLA209900059
    INDEX 00 04:15:62
FILE "03 - Nikki's Dream.wav" WAVE
    INDEX 01 00:00:00
  TRACK 04 AUDIO
    TITLE "Girls Night Out"
    PERFORMER "Candy Dulfer"
    ISRC NLA209900054
    INDEX 00 03:11:51
FILE "04 - Girls Night Out.wav" WAVE
    INDEX 01 00:00:00
  TRACK 05 AUDIO
    TITLE "Dance 'Till You Bop"
    PERFORMER "Candy Dulfer"
    ISRC NLA209900061
    INDEX 00 03:24:02
FILE "05 - Dance 'Till You Bop.wav" WAVE
    INDEX 01 00:00:00
  TRACK 06 AUDIO
    TITLE "Synchrodestiny (Live) (feat. Dave Stewart)"
    PERFORMER "Candy Dulfer"
    ISRC NLA200000212
    INDEX 00 05:07:54
FILE "06 - Synchrodestiny (Live) (feat. Dave Stewart).wav" WAVE
    INDEX 01 00:00:00
  TRACK 07 AUDIO
    TITLE "What's in Your Head"
    PERFORMER "Candy Dulfer"
    ISRC GBCBR0300071
    INDEX 00 05:10:06
FILE "07 - What's in Your Head.wav" WAVE
    INDEX 01 00:00:00
  TRACK 08 AUDIO
    TITLE "Let Me Show You"
    PERFORMER "Candy Dulfer"
    ISRC GBCBR0300060
    INDEX 00 03:31:41
FILE "08 - Let Me Show You.wav" WAVE
    INDEX 01 00:00:00
  TRACK 09 AUDIO
    TITLE "Finsbury Park, Cafe 67"
    PERFORMER "Candy Dulfer"
    ISRC GBCBR0300066
    INDEX 00 03:17:18
FILE "09 - Finsbury Park, Cafe 67.wav" WAVE
    INDEX 01 00:00:00
  TRACK 10 AUDIO
    TITLE "Summertime"
    PERFORMER "Candy Dulfer"
    ISRC USHU20713106
    INDEX 00 04:41:24
FILE "10 - Summertime.wav" WAVE
    INDEX 01 00:00:00
  TRACK 11 AUDIO
    TITLE "My Funk"
    PERFORMER "Candy Dulfer"
    ISRC USHU20915202
    INDEX 00 04:28:36
FILE "11 - My Funk.wav" WAVE
    INDEX 01 00:00:00
  TRACK 12 AUDIO
    TITLE "Don't Go"
    PERFORMER "Candy Dulfer"
    ISRC USHU20915204
    INDEX 00 04:55:53
FILE "12 - Don't Go.wav" WAVE
    INDEX 01 00:00:00
  TRACK 13 AUDIO
    TITLE "First in Line"
    PERFORMER "Candy Dulfer"
    ISRC USHU20915201
    INDEX 00 03:14:02
FILE "13 - First in Line.wav" WAVE
    INDEX 01 00:00:00
  TRACK 14 AUDIO
    TITLE "Crazy"
    PERFORMER "Candy Dulfer"
    ISRC USCUE1100031
    INDEX 00 04:02:46
FILE "14 - Crazy.wav" WAVE
    INDEX 01 00:00:00
  TRACK 15 AUDIO
    TITLE "Hey Now"
    PERFORMER "Candy Dulfer"
    ISRC USCUE1100032
    INDEX 00 04:08:06
FILE "15 - Hey Now.wav" WAVE
    INDEX 01 00:00:00
  TRACK 16 AUDIO
    TITLE "Too Close"
    PERFORMER "Candy Dulfer"
    ISRC USCUE1100044
    INDEX 00 03:59:66
FILE "16 - Too Close.wav" WAVE
    INDEX 01 00:00:00
  TRACK 17 AUDIO
    TITLE "Pick Up the Pieces/Dance Medley (Live) (Ladies of Soul feat. Candy Dulfer)"
    PERFORMER "Candy Dulfer"
    ISRC NLXV41400023
    INDEX 00 06:07:51
FILE "17 - Pick Up the Pieces,Dance Medley (Live) (Ladies of Soul feat. Candy Dulfer).wav" WAVE
    INDEX 01 00:00:00
  TRACK 18 AUDIO
    TITLE "Merry Christmas Baby (Trijntje Oosterhuis feat. Candy Dulfer)"
    PERFORMER "Candy Dulfer"
    ISRC NLA270400488
    INDEX 00 05:07:02
FILE "18 - Merry Christmas Baby (Trijntje Oosterhuis feat. Candy Dulfer).wav" WAVE
    INDEX 01 00:00:00
Код:
[CUETools log; Date: 07.11.2019 22:17:14; Version: 2.1.6]
[CTDB TOCID: 9c9DquPsaRjmS8o0o1hvuGhQus0-] found.
Track | CTDB Status
  1   | (15/15) Accurately ripped
  2   | (15/15) Accurately ripped
  3   | (15/15) Accurately ripped
  4   | (15/15) Accurately ripped
  5   | (15/15) Accurately ripped
  6   | (15/15) Accurately ripped
  7   | (15/15) Accurately ripped
  8   | (15/15) Accurately ripped
  9   | (15/15) Accurately ripped
 10   | (15/15) Accurately ripped
 11   | (15/15) Accurately ripped
 12   | (15/15) Accurately ripped
 13   | (15/15) Accurately ripped
 14   | (15/15) Accurately ripped
 15   | (15/15) Accurately ripped
 16   | (15/15) Accurately ripped
 17   | (15/15) Accurately ripped
 18   | (14/15) Accurately ripped, or (1/15) differs in 4304 samples @03:47:29-03:47:39
[AccurateRip ID: 0031fa5b-029afbdd-14123c12] found.
Track   [  CRC   |   V2   ] Status
 01     [5c6bb6f7|16874c4f] (0+4/4) Accurately ripped
 02     [1603c374|81abdbb9] (0+4/4) Accurately ripped
 03     [53b7b0e3|5bc57373] (0+4/4) Accurately ripped
 04     [25bd805e|b7a8d800] (0+4/4) Accurately ripped
 05     [236efe7b|f2910523] (0+4/4) Accurately ripped
 06     [95a34c48|405ff11b] (0+4/4) Accurately ripped
 07     [b32a28b0|002319bf] (0+4/4) Accurately ripped
 08     [44008c20|a843c167] (0+4/4) Accurately ripped
 09     [fc4decec|ed5a128d] (0+4/4) Accurately ripped
 10     [3732c44d|55dbcf2b] (0+4/4) Accurately ripped
 11     [916042aa|1a424222] (0+4/4) Accurately ripped
 12     [09742e6e|7b67b123] (0+4/4) Accurately ripped
 13     [32e8fb96|e3b9f720] (0+4/4) Accurately ripped
 14     [3251a4c4|af35161f] (0+4/4) Accurately ripped
 15     [4df887dd|205d9151] (0+4/4) Accurately ripped
 16     [2a15f9fe|134f1004] (0+4/4) Accurately ripped
 17     [c988a565|43d62743] (0+4/4) Accurately ripped
 18     [7b31ab04|5f0542cf] (0+4/4) Accurately ripped
Track Peak [ CRC32  ] [W/O NULL] [  LOG   ]
 --   96,6 [012F0C05] [C3A57970]
 01   95,5 [DAE29545] [E48D2006]   CRC32
 02   96,3 [94A4F50C] [C1FFBE29]   CRC32
 03   95,9 [20019BE4] [0E220CEC]   CRC32
 04   95,9 [E9FFC321] [A10D7ADA]   CRC32
 05   87,6 [A3C720D6] [4DF324E7]   CRC32
 06   96,6 [59772D27] [D9BF8034]   CRC32
 07   83,5 [EF1C6B28] [62E36684]   CRC32
 08   79,3 [3F674BA4] [E687910C]   CRC32
 09   90,6 [5DE52ED4] [CC836509]   CRC32
 10   81,2 [977958CB] [39B8F096]   CRC32
 11   96,6 [A3F55EE1] [BA2F0085]   CRC32
 12   96,6 [8F1E003C] [2D635AB1]   CRC32
 13   96,6 [B259A9C4] [51EABAE9]   CRC32
 14   94,4 [395B417F] [FB63B0EC]   CRC32
 15   94,4 [77A6E7C5] [80D2C4E4]   CRC32
 16   91,2 [B28B8CCC] [4C4EF2C1]   CRC32
 17   96,6 [69B13F3B] [C56E4190]   CRC32
 18   96,6 [EBAD9D09] [FF774C47]   CRC32




2020-10-08 17:44
Профиль
  • Торрент
Автор: Klingon Хэш: ---
Добавлен: 2020-10-08 17:44 Приватный: Нет (DHT включён)
Статус: Проверен
Размер: 1.02 ГБ (1 090 614 631 байт)
Изменил:
---
Скачали: 2 (Раздающих: 0%)
Причина:
---
Здоровье: 100%
Сидеров: 25 Личеров: 8
Скорость раздачи: 0 байт/сек Скорость скачивания: 0 байт/сек
Последний сидер: 4 месяца 28 дней 2 часа 48 минут 14 секунд назад Последний личер: 4 месяца 28 дней 2 часа 48 минут 14 секунд назад
Для скачивания торрента необходимо зарегистрироваться или войти на трекер.
Администратор
Администратор
Аватара пользователя
Раздал: 1.63 ТБ
Скачал: 33.24 ГБ
Ратио: 1049.571


Зарегистрирован: 2013-08-12 19:04
Сообщения: 2851
Ответить с цитатой 
Да, Candy Dulfer - деваха и музыкант просто супер !)) :bd: СПС за релиз !


2020-10-08 18:10
Профиль
Показать сообщения за:  Поле сортировки  
Ответить на тему   [ Сообщений: 2 ] 

Кто сейчас на конференции

Сейчас этот форум просматривают: нет зарегистрированных пользователей и гости: 1


Вы не можете начинать темы
Вы не можете отвечать на сообщения
Вы не можете редактировать свои сообщения
Вы не можете удалять свои сообщения
Вы не можете добавлять вложения

Найти:
Перейти:  
cron
Создано на основе phpBB® Forum Software © phpBB Group
ppkBB3cker v.2.5 © 2008-2021 @ PPK | Icon Theme by Everaldo.com Design Studio
Designed by ST Software.
Русская поддержка phpBB
[ Time : 0.161s | 18 Queries | GZIP : Off ]
Ресурс не предоставляет электронные версии произведений, а занимается лишь коллекционированием и каталогизацией ссылок, присылаемых и публикуемых на форуме нашими читателями. Если вы являетесь правообладателем какого-либо представленного материала и не желаете чтобы ссылка на него находилась в нашем каталоге, свяжитесь с нами и мы незамедлительно удалим её. Файлы для обмена на трекере предоставлены пользователями сайта, и администрация не несёт ответственности за их содержание. Просьба не заливать файлы, защищенные авторскими правами, а также файлы нелегального содержания!
tracker_cron Яндекс.Метрика