Сообщения без ответов | Активные темы Текущее время: 2024-07-14 19:33



Ответить на тему  [ 1 сообщение ] 
Koko Taylor - Deluxe Edition (2002) [FLAC|Lossless]<Blues> 
Автор Сообщение
Релизер
Релизер
Раздал: 0 байт
Скачал: 0 байт
Ратио: Inf.


Зарегистрирован: 2013-10-07 15:27
Сообщения: 22378
Ответить с цитатой 




Koko Taylor - Deluxe Edition (2002)

#777
Год: 2002
Жанр: Blues
Продолжительность: 01:04:07

Кодек: FLAC (tracks+.cue +log)
Битрейт: Lossless

Треклист:
01. I'm A Woman (4:35)
02. Beer Bottle Boogie (3:32)
03. Born Under A Bad Sign (with Buddy Guy) (4:56)
04. Mother Nature (with Carey Bell) (4:42)
05. Hey Bartender (with Pinetop Perkins) (2:53)
06. I'd Rather Go Blind (4:56)
07. Man Size Job (4:01)
08. Let The Good Times Roll (Live) (4:14)
09. Voodoo Woman (with Mighty Joe Young) (3:48)
10. Wang Dang Doodle (4:25)
11. Stop Watching Your Enemies (5:16)
12. Sure Had A Wonderful Time Last Night (3:04)
13. Come To Mama (4:48)
14. Time Will Tell (4:50)
15. Blues Hotel (with B.B.King) (4:05)
Код:
EAC extraction logfile from 4. May 2008, 18:46 for CD
Koko Taylor / Deluxe Edition

Used drive  : TSSTcorpCD/DVDW SH-S182D   Adapter: 5  ID: 0
Read mode   : Secure with NO C2, accurate stream, disable cache
Read offset correction : 6
Overread into Lead-In and Lead-Out : No

Used output format : C:\Program Files\Exact Audio Copy\flac.exe   (User Defined Encoder)
                     320 kBit/s
                     Additional command line options :  -8 -V -T "ARTIST=%a" -T "TITLE=%t" -T "ALBUM=%g" -T "DATE=%y" -T "TRACKNUMBER=%n" -T "GENRE=%m" -T "COMMENT=EAC FLAC -8" %s

Other options      :
    Fill up missing offset samples with silence : Yes
    Delete leading and trailing silent blocks : No
    Installed external ASPI interface

Track  1
     Filename F:\FLAC P\Koko Taylor - Deluxe Edition (2002) [FLAC] (Alligator ALCD 5610)\01 - I'm A Woman.wav

     Pre-gap length  0:00:02.00

     Peak level 98.8 %
     Track quality 100.0 %
     Test CRC 56A1D28A
     Copy CRC 56A1D28A
     Copy OK

Track  2
     Filename F:\FLAC P\Koko Taylor - Deluxe Edition (2002) [FLAC] (Alligator ALCD 5610)\02 - Beer Bottle Boogie.wav

     Peak level 98.8 %
     Track quality 100.0 %
     Test CRC 77F42892
     Copy CRC 77F42892
     Copy OK

Track  3
     Filename F:\FLAC P\Koko Taylor - Deluxe Edition (2002) [FLAC] (Alligator ALCD 5610)\03 - Born Under A Bad Sign (with Buddy Guy).wav

     Peak level 98.8 %
     Track quality 100.0 %
     Test CRC F20AF183
     Copy CRC F20AF183
     Copy OK

Track  4
     Filename F:\FLAC P\Koko Taylor - Deluxe Edition (2002) [FLAC] (Alligator ALCD 5610)\04 - Mother Nature (with Carey Bell).wav

     Peak level 98.8 %
     Track quality 100.0 %
     Test CRC 15433B0C
     Copy CRC 15433B0C
     Copy OK

Track  5
     Filename F:\FLAC P\Koko Taylor - Deluxe Edition (2002) [FLAC] (Alligator ALCD 5610)\05 - Hey Bartender (with Pinetop Perkins).wav

     Peak level 98.8 %
     Track quality 100.0 %
     Test CRC 65A7C8CB
     Copy CRC 65A7C8CB
     Copy OK

Track  6
     Filename F:\FLAC P\Koko Taylor - Deluxe Edition (2002) [FLAC] (Alligator ALCD 5610)\06 - I'd Rather Go Blind.wav

     Peak level 98.8 %
     Track quality 100.0 %
     Test CRC A2FA6D4A
     Copy CRC A2FA6D4A
     Copy OK

Track  7
     Filename F:\FLAC P\Koko Taylor - Deluxe Edition (2002) [FLAC] (Alligator ALCD 5610)\07 - Man Size Job.wav

     Peak level 98.8 %
     Track quality 100.0 %
     Test CRC 24E043AB
     Copy CRC 24E043AB
     Copy OK

Track  8
     Filename F:\FLAC P\Koko Taylor - Deluxe Edition (2002) [FLAC] (Alligator ALCD 5610)\08 - Let The Good Times Roll (Live).wav

     Peak level 98.8 %
     Track quality 100.0 %
     Test CRC E40A741E
     Copy CRC E40A741E
     Copy OK

Track  9
     Filename F:\FLAC P\Koko Taylor - Deluxe Edition (2002) [FLAC] (Alligator ALCD 5610)\09 - Voodoo Woman (with Mighty Joe Young).wav

     Peak level 93.7 %
     Track quality 100.0 %
     Test CRC 134B5DB1
     Copy CRC 134B5DB1
     Copy OK

Track 10
     Filename F:\FLAC P\Koko Taylor - Deluxe Edition (2002) [FLAC] (Alligator ALCD 5610)\10 - Wang Dang Doodle.wav

     Peak level 98.8 %
     Track quality 100.0 %
     Test CRC D8462455
     Copy CRC D8462455
     Copy OK

Track 11
     Filename F:\FLAC P\Koko Taylor - Deluxe Edition (2002) [FLAC] (Alligator ALCD 5610)\11 - Stop Watching Your Enemies.wav

     Peak level 98.8 %
     Track quality 100.0 %
     Test CRC 4C0A0608
     Copy CRC 4C0A0608
     Copy OK

Track 12
     Filename F:\FLAC P\Koko Taylor - Deluxe Edition (2002) [FLAC] (Alligator ALCD 5610)\12 - Sure Had A Wonderful Time Last Night.wav

     Peak level 98.8 %
     Track quality 100.0 %
     Test CRC 3A53F44B
     Copy CRC 3A53F44B
     Copy OK

Track 13
     Filename F:\FLAC P\Koko Taylor - Deluxe Edition (2002) [FLAC] (Alligator ALCD 5610)\13 - Come To Mama.wav

     Peak level 98.8 %
     Track quality 100.0 %
     Test CRC 3D080700
     Copy CRC 3D080700
     Copy OK

Track 14
     Filename F:\FLAC P\Koko Taylor - Deluxe Edition (2002) [FLAC] (Alligator ALCD 5610)\14 - Time Will Tell.wav

     Peak level 98.8 %
     Track quality 100.0 %
     Test CRC DFBF5E6D
     Copy CRC DFBF5E6D
     Copy OK

Track 15
     Filename F:\FLAC P\Koko Taylor - Deluxe Edition (2002) [FLAC] (Alligator ALCD 5610)\15 - Blues Hotel (with B.B.King).wav

     Pre-gap length  0:00:01.06

     Peak level 98.8 %
     Track quality 100.0 %
     Test CRC BDD96402
     Copy CRC BDD96402
     Copy OK

No errors occured

End of status report
Код:
-----------------------

DON'T MODIFY THIS FILE

-----------------------

PERFORMER: auCDtect Task Manager, ver. 1.5.1RC6 build 1.5.1.7
Copyright (c) 2008-2010 y-soft. All rights reserved
http://y-soft.org

ANALYZER: auCDtect: CD records authenticity detector, version 0.8.2
Copyright (c) 2004 Oleg Berngardt. All rights reserved.
Copyright (c) 2004 Alexander Djourik. All rights reserved.

FILE: 15 - Blues Hotel (with B.B.King).flac
  Size: 29394163 Hash: 11D897A41A0B061424AAFB2A69761EC8 Accuracy: -m8
  Conclusion: CDDA 100%
  Signature: 2AA5B3A84066776AB1ACE760142328E6ED174CB6
FILE: 14 - Time Will Tell.flac
  Size: 30175869 Hash: 3EF27F27CA570908448953FEB0E1D077 Accuracy: -m8
  Conclusion: CDDA 99%
  Signature: 44834A83C78348C28A7240C26897FBC4F471BB43
FILE: 13 - Come To Mama.flac
  Size: 32325813 Hash: 9DCD1EA79741F125ABC2D4B8CF2F1FD9 Accuracy: -m8
  Conclusion: CDDA 100%
  Signature: AE49817C491D9C2C4119C0516957D425F55C328D
FILE: 12 - Sure Had A Wonderful Time Last Night.flac
  Size: 19237003 Hash: FBD318CFA64B668297142D3C3A6DD73A Accuracy: -m8
  Conclusion: CDDA 100%
  Signature: 83D2672E50DA3050E0CE4DAB5F4EC0C74131D132
FILE: 11 - Stop Watching Your Enemies.flac
  Size: 36405046 Hash: D56625CAE6E7A64C4A316D2032C3D81B Accuracy: -m8
  Conclusion: CDDA 100%
  Signature: 46CE0B022D9071853892A14D25E52B2ACFE91002
FILE: 10 - Wang Dang Doodle.flac
  Size: 30133013 Hash: 069EF8BF1A4DE059B87ED3DDC1F2670B Accuracy: -m8
  Conclusion: CDDA 100%
  Signature: 1DF936FE2DE7826E4663882D21C779BE0E2AC210
FILE: 09 - Voodoo Woman (with Mighty Joe Young).flac
  Size: 26683752 Hash: 658472CA1705A1FF79E073C03CEA292A Accuracy: -m8
  Conclusion: CDDA 99%
  Signature: 1A7EC33166A5BB0C6C2A99FE58DD107CC0EA8816
FILE: 08 - Let The Good Times Roll (Live).flac
  Size: 28890080 Hash: 03AA1C3224FB95788439A09E92364070 Accuracy: -m8
  Conclusion: CDDA 100%
  Signature: 59BC0E9F09CBAE95C5239D576B63B90733C6A08B
FILE: 07 - Man Size Job.flac
  Size: 30010231 Hash: 460DB6E4C9FEF3A70256806E76C83AC7 Accuracy: -m8
  Conclusion: CDDA 100%
  Signature: 8938FE6F406B876838C9B603798AC1E9617A5AB9
FILE: 06 - I'd Rather Go Blind.flac
  Size: 30573568 Hash: A0EA4251E5DE4FC3D6AB29A4A7D335DD Accuracy: -m8
  Conclusion: CDDA 100%
  Signature: 42B1C4CDFFCAD8EAA39D6A3859BBD620E515B88F
FILE: 05 - Hey Bartender (with Pinetop Perkins).flac
  Size: 19001412 Hash: 74250515F65941A168733DAE2F3B489F Accuracy: -m8
  Conclusion: CDDA 100%
  Signature: 2451EB523C93CAB4C4B98084BECC3244BDE4F257
FILE: 04 - Mother Nature (with Carey Bell).flac
  Size: 31408924 Hash: A3ECD392084523AA15198DDA5889904C Accuracy: -m8
  Conclusion: CDDA 99%
  Signature: 57DA3447C3D19315258017F5D3D08F34811DC423
FILE: 03 - Born Under A Bad Sign (with Buddy Guy).flac
  Size: 34727761 Hash: 152AC0A515FD2C2B37292BF203865C20 Accuracy: -m8
  Conclusion: CDDA 100%
  Signature: 751746071B1D2EE19F04A3450AA69521C9DDAA58
FILE: 02 - Beer Bottle Boogie.flac
  Size: 24269256 Hash: BC0A76A2343A15E1ACCA30CD90610B47 Accuracy: -m8
  Conclusion: CDDA 100%
  Signature: BB483245DA9E618C139D9C5C3C3836F70F9FFD8B
FILE: 01 - I'm A Woman.flac
  Size: 32473466 Hash: 9CABDF72C5D395560F1A3C2873593CC6 Accuracy: -m8
  Conclusion: CDDA 100%
  Signature: A2DE9E7962050832E578C1418C6E6D180CB86CB4
Время раздачи: 09:00 - 24:00


2013-12-16 11:07
Профиль
  • Торрент
Автор: Arhangel Хэш: ---
Добавлен: 2013-12-16 11:05 Приватный: Нет (DHT включён)
Статус:
---
Размер: 415.58 МБ (435 772 087 байт)
Изменил:
---
Скачали: 0 (Раздающих: 0%)
Причина:
---
Здоровье: ???%
Сидеров: 0 Личеров: 1
Скорость раздачи: 0 байт/сек Скорость скачивания: 0 байт/сек
Последний сидер: Нет Последний личер: 3 месяца 3 дня 40 минут 59 секунд назад
Для скачивания торрента необходимо зарегистрироваться или войти на трекер.
Показать сообщения за:  Поле сортировки  
Ответить на тему   [ 1 сообщение ] 

Кто сейчас на конференции

Сейчас этот форум просматривают: нет зарегистрированных пользователей и гости: 1


Вы не можете начинать темы
Вы не можете отвечать на сообщения
Вы не можете редактировать свои сообщения
Вы не можете удалять свои сообщения
Вы не можете добавлять вложения

Найти:
Перейти:  
cron
Создано на основе phpBB® Forum Software © phpBB Group
ppkBB3cker v.2.5 © 2008-2021 @ PPK | Icon Theme by Everaldo.com Design Studio
Designed by ST Software.
Русская поддержка phpBB
[ Time : 0.434s | 18 Queries | GZIP : Off ]
Ресурс не предоставляет электронные версии произведений, а занимается лишь коллекционированием и каталогизацией ссылок, присылаемых и публикуемых на форуме нашими читателями. Если вы являетесь правообладателем какого-либо представленного материала и не желаете чтобы ссылка на него находилась в нашем каталоге, свяжитесь с нами и мы незамедлительно удалим её. Файлы для обмена на трекере предоставлены пользователями сайта, и администрация не несёт ответственности за их содержание. Просьба не заливать файлы, защищенные авторскими правами, а также файлы нелегального содержания!
tracker_cron Яндекс.Метрика