Сообщения без ответов | Активные темы Текущее время: 2024-07-14 20:54



Ответить на тему  [ 1 сообщение ] 
Little Milton - Back To Back (1988) 2015, MALACO RECORDS [FLAC|Lossless|image + .cue] <Blues, soul> 
Автор Сообщение
Почетный пользователь
Почетный пользователь
Аватара пользователя
Раздал: 4.22 ТБ
Скачал: 108.08 ГБ
Ратио: 1047.464


Зарегистрирован: 2015-11-23 20:42
Сообщения: 149
Откуда: Калининград
Ответить с цитатой 
Little Milton - Back To Back (1988) 2015, MALACO RECORDS

#777Жанр: Blues, soul
Издание: MALACO RECORDS - CDSOL-5427
Источник: pazanenok
Продолжительность: 00:43:02

Кодек: FLAC
Битрейт: Lossless
Тип рипа: image + .cue

Треклист:
01.I Was Tryin' Not to Break Down
02.Caught In the Act (Of Gettin' It On)
03.You Can't Trust Your Neighbor
04.Penitentiary Blues
05.(I Had) Too Much Heaven Last Night
06.I Don't Believe In Ghosts
07.It's Hard To Explain
08.The End Of the Rainbow
09.Fast Young Lady
10.The WInd Beneath My Wings
[pre]
Exact Audio Copy V1.3 from 2. September 2016

Отчёт EAC об извлечении, выполненном 18. августа 2018, 21:32

Little Milton / Back To Back

Дисковод: PIONEER DVD-RW DVR-219L Adapter: 1 ID: 0

Режим чтения : Достоверность
Использование точного потока : Да
Отключение кэша аудио : Да
Использование указателей C2 : Нет

Коррекция смещения при чтении : 6
Способность читать области Lead-in и Lead-out : Нет
Заполнение пропущенных сэмплов тишиной : Да
Удаление блоков с тишиной в начале и конце : Нет
При вычислениях CRC использовались нулевые сэмплы : Да
Интерфейс : Встроенный Win32-интерфейс для Win NT/2000

Выходной формат : Пользовательский кодировщик
Выбранный битрейт : 768 kBit/s
Качество : Высокий
Добавление ID3-тега : Нет
Утилита сжатия : C:\Program Files\Exact Audio Copy\FLAC\FLAC.EXE
Дополнительные параметры : -6 -V -T "ARTIST=%artist%" -T "TITLE=%title%" -T "ALBUM=%albumtitle%" -T "DATE=%year%" -T "TRACKNUMBER=%tracknr%" -T "GENRE=%genre%" -T "COMMENT=%comment%" -T "BAND=%albuminterpret%" -T "ALBUMARTIST=%albuminterpret%" -T "COMPOSER=%composer%" %haslyrics%--tag-from-file=LYRICS="%lyricsfile%"%haslyrics% -T "DISCNUMBER=%cdnumber%" -T "TOTALDISCS=%totalcds%" -T "TOTALTRACKS=%numtracks%" %hascover%--picture="%coverfile%"%hascover% %source% -o %dest%

TOC извлечённого CD

Трек | Старт | Длительность | Начальный сектор | Конечный сектор
---------------------------------------------------------------------
1 | 0:00.00 | 4:14.09 | 0 | 19058
2 | 4:14.09 | 4:34.12 | 19059 | 39620
3 | 8:48.21 | 4:30.22 | 39621 | 59892
4 | 13:18.43 | 4:32.05 | 59893 | 80297
5 | 17:50.48 | 3:35.33 | 80298 | 96455
6 | 21:26.06 | 4:18.08 | 96456 | 115813
7 | 25:44.14 | 4:03.73 | 115814 | 134111
8 | 29:48.12 | 5:06.05 | 134112 | 157066
9 | 34:54.17 | 3:56.01 | 157067 | 174767
10 | 38:50.18 | 4:12.02 | 174768 | 193669

Характеристики диапазона извлечения и сообщения об ошибках

Выбранный диапазон

Имя файла E:\Раздачи\Little Milton - Back To Back - 1988\Little Milton - Back To Back.wav

Пиковый уровень 97.7 %
Скорость извлечения 2.9 X
Качество диапазона 100.0 %
CRC теста 0E35368D
CRC копии 0E35368D
Копирование... OK

Ошибок не произошло

AccurateRip: сводка

Трек 1 : извлечено точно (доверие 1) [1395985F] (AR v2)
Трек 2 : извлечено точно (доверие 1) [C1F5ADF8] (AR v2)
Трек 3 : извлечено точно (доверие 1) [DFD01C6F] (AR v2)
Трек 4 : извлечено точно (доверие 1) [4C39952B] (AR v2)
Трек 5 : извлечено точно (доверие 1) [0981C638] (AR v2)
Трек 6 : извлечено точно (доверие 1) [B545418A] (AR v2)
Трек 7 : извлечено точно (доверие 1) [D76F835E] (AR v2)
Трек 8 : извлечено точно (доверие 1) [923C3F55] (AR v2)
Трек 9 : извлечено точно (доверие 1) [D1089428] (AR v2)
Трек 10 : извлечено точно (доверие 1) [6E757B99] (AR v2)

Все треки извлечены точно

Конец отчёта

---- CUETools DB Plugin V2.1.6

[CTDB TOCID: z0MXrdxGTbNssyfpYPv7cRG4Ppc-] found
Submit result: z0MXrdxGTbNssyfpYPv7cRG4Ppc- has been confirmed
Track | CTDB Status
1 | (4/4) Accurately ripped
2 | (4/4) Accurately ripped
3 | (4/4) Accurately ripped
4 | (4/4) Accurately ripped
5 | (4/4) Accurately ripped
6 | (4/4) Accurately ripped
7 | (4/4) Accurately ripped
8 | (4/4) Accurately ripped
9 | (4/4) Accurately ripped
10 | (4/4) Accurately ripped

==== Контрольная сумма отчёта 55B32AB8714A4E896033A1132DE880BC68F5BCB7F3B62367C8FDB1A60F1B2939 ====
[/pre]
[pre]
REM GENRE Blues
REM DATE 1988
REM DISCID 780A160A
REM COMMENT "ExactAudioCopy v1.3"
PERFORMER "Little Milton"
TITLE "Back To Back"
REM COMPOSER ""
FILE "Little Milton - Back To Back.flac" WAVE
TRACK 01 AUDIO
TITLE "I Was Tryin' Not to Break Down"
PERFORMER "Little Milton"
REM COMPOSER ""
INDEX 01 00:00:00
TRACK 02 AUDIO
TITLE "Caught In the Act (Of Gettin' It On)"
PERFORMER "Little Milton"
REM COMPOSER ""
INDEX 01 04:14:09
TRACK 03 AUDIO
TITLE "You Can't Trust Your Neighbor"
PERFORMER "Little Milton"
REM COMPOSER ""
INDEX 01 08:48:21
TRACK 04 AUDIO
TITLE "Penitentiary Blues"
PERFORMER "Little Milton"
REM COMPOSER ""
INDEX 01 13:18:43
TRACK 05 AUDIO
TITLE "(I Had) Too Much Heaven Last Night"
PERFORMER "Little Milton"
REM COMPOSER ""
INDEX 01 17:50:48
TRACK 06 AUDIO
TITLE "I Don't Believe In Ghosts"
PERFORMER "Little Milton"
REM COMPOSER ""
INDEX 01 21:26:06
TRACK 07 AUDIO
TITLE "It's Hard To Explain"
PERFORMER "Little Milton"
REM COMPOSER ""
INDEX 01 25:44:14
TRACK 08 AUDIO
TITLE "The End Of the Rainbow"
PERFORMER "Little Milton"
REM COMPOSER ""
INDEX 01 29:48:12
TRACK 09 AUDIO
TITLE "Fast Young Lady"
PERFORMER "Little Milton"
REM COMPOSER ""
INDEX 01 34:54:17
TRACK 10 AUDIO
TITLE "The WInd Beneath My Wings"
PERFORMER "Little Milton"
REM COMPOSER ""
INDEX 01 38:50:18
[/pre]
[pre]
-----------------------

DON'T MODIFY THIS FILE

-----------------------

PERFORMER: auCDtect Task Manager, ver. 1.6.0 RC1 build 1.6.0.1
Copyright (c) 2008-2010 y-soft. All rights reserved
http://y-soft.org

ANALYZER: auCDtect: CD records authenticity detector, version 0.8.2
Copyright (c) 2004 Oleg Berngardt. All rights reserved.
Copyright (c) 2004 Alexander Djourik. All rights reserved.

FILE: Little Milton - Back To Back.flac
Size: 289967445 Hash: AB4263E2F6CD56A96B46C1786B5D4E54 Accuracy: -m0
Conclusion: CDDA 100%
Signature: 858ECCC6FCCB858F741847937C51A702F95450FD
[/pre]


2018-08-19 13:55
Профиль
  • Торрент
Автор: Direktor_75 Хэш: ---
Добавлен: 2018-08-19 13:55 Приватный: Нет (DHT включён)
Статус:
---
Размер: 276.6 МБ (290 041 363 байт)
Изменил:
---
Скачали: 0 (Раздающих: 0%)
Причина:
---
Здоровье: 0%
Сидеров: 0 Личеров: 0
Скорость раздачи: 0 байт/сек Скорость скачивания: 0 байт/сек
Последний сидер: Нет Последний личер: Нет
Для скачивания торрента необходимо зарегистрироваться или войти на трекер.
Показать сообщения за:  Поле сортировки  
Ответить на тему   [ 1 сообщение ] 

Кто сейчас на конференции

Сейчас этот форум просматривают: нет зарегистрированных пользователей и гости: 1


Вы не можете начинать темы
Вы не можете отвечать на сообщения
Вы не можете редактировать свои сообщения
Вы не можете удалять свои сообщения
Вы не можете добавлять вложения

Найти:
Перейти:  
cron
Создано на основе phpBB® Forum Software © phpBB Group
ppkBB3cker v.2.5 © 2008-2021 @ PPK | Icon Theme by Everaldo.com Design Studio
Designed by ST Software.
Русская поддержка phpBB
[ Time : 0.159s | 18 Queries | GZIP : Off ]
Ресурс не предоставляет электронные версии произведений, а занимается лишь коллекционированием и каталогизацией ссылок, присылаемых и публикуемых на форуме нашими читателями. Если вы являетесь правообладателем какого-либо представленного материала и не желаете чтобы ссылка на него находилась в нашем каталоге, свяжитесь с нами и мы незамедлительно удалим её. Файлы для обмена на трекере предоставлены пользователями сайта, и администрация не несёт ответственности за их содержание. Просьба не заливать файлы, защищенные авторскими правами, а также файлы нелегального содержания!
tracker_cron Яндекс.Метрика