Сообщения без ответов | Активные темы Текущее время: 2024-07-14 20:57



Ответить на тему  [ 1 сообщение ] 
VA - 25 Blues Evergreens (1991) 4CD [FLAC|Lossless|image + .cue] <Blues> 
Автор Сообщение
Администратор
Администратор
Аватара пользователя
Раздал: 1.63 ТБ
Скачал: 33.24 ГБ
Ратио: 1049.571


Зарегистрирован: 2013-08-12 19:04
Сообщения: 2851
Ответить с цитатой 
VA - 25 Blues Evergreens (1991) 4CD

#777Жанр: Blues
Издание: Biem/Stemra CD1-K-BOX 021A, CD2-K-BOX 021B, CD3-K-BOX 021C, CD4-K-BOX 021D
Источник: собственный рип
Продолжительность: 04:42:17

Кодек: FLAC
Битрейт: Lossless
Тип рипа: image + .cue
Треклист:
CD1:
01. Eric Clapton - Draggin' My Tail 3:02
02. Muddy Waters - (I'm Your) Hoochie Coochie Man 2:49
03. Howlin' Wolf - Wang Dang Doodle 4:55
04. Lightnin' Hopkins - Mojo Hand 2:57
05. Elmore James - Standing At The Crossroads 2:45
06. John Mayall - Reaching For A Mountain 4:20
07. Little Walter - Juke 2:42
08. B.B. King - When My Heart Beats Like A Hammer 2:55
09. Howlin' Wolf - I Walked From Dallas 3:09
10. Muddy Waters - She Moves Me 2:54
11. Sonny Boy Williamson - Got To Move 2:25
12. John Lee Hooker - My First Wife Left Me 2:34
13. B.B. King - Ten Long Years 2:46
14. John Mayall - Mama Talk To Your Daughter 3:55
15. Little Walter - Everybody Need Somebody 2:50
16. Howlin' Wolf - Shake For Me 2:09
17. Eric Clapton - Choker 1:19
18. Muddy Waters - Baby Please Don't Go 3:13
19. Elmore James - The Sky Is Crying 2:41
20. John Lee Hooker - You're Leavin' Me Baby 3:52
21. Little Walter - Everything's Gonna Be Alright 2:48
22. Sonny Boy Williamson - The Key (To Your Door) 2:31
23. Howlin' Wolf - Killing Floor 2:46
24. Elmore James - Mean Mistreatin' Mama 2:39
25. Jeff Beck - I'm A Man 2:36

Прoдолжительность: 01:14:29
Код:
Rubyripper version 0.7.0rc2
Website: [url=http://code.google.com/p/rubyripper]http://code.google.com/p/rubyripper[/url]

Rubyripper extraction logfile from:
["Вт 21 июл 2020 20:02:43 MSK\r\n"]

Various Artists / 25 Blues Evergreens

Used drive     : Optiarc DVD RW AD-7243S 1.03   Устройство: /dev/dvdrw

Используемый ripper    : cdparanoia III release 10.2 (September 11, 2008)
Selected options :

Matches required for all chunks       : 2
Matches required for erroneous chunks : 3

Read offset correction                      : 48
Overread into Lead-In and Lead-Out          : Нет
Fill up missing offset samples with silence : Yes
Null samples used in CRC calculations       : Yes

Used output encoder : flac 1.3.3
Selected options      : --best -V

TOC of the extracted CD

     Track |   Start  |  Length  | Start sector | End sector
    ---------------------------------------------------------
        1  | 00:00:32 | 03:04:60 |        32    |    13891
        2  | 03:05:17 | 02:51:68 |     13892    |    26784
        3  | 05:57:10 | 04:57:45 |     26785    |    49104
        4  | 10:54:55 | 02:59:02 |     49105    |    62531
        5  | 13:53:57 | 02:46:73 |     62532    |    75054
        6  | 16:40:55 | 04:21:42 |     75055    |    94671
        7  | 21:02:22 | 02:44:68 |     94672    |   107039
        8  | 23:47:15 | 02:56:67 |    107040    |   120306
        9  | 26:44:07 | 03:10:58 |    120307    |   134614
       10  | 29:54:65 | 02:55:62 |    134615    |   147801
       11  | 32:50:52 | 02:26:10 |    147802    |   158761
       12  | 35:16:62 | 02:36:00 |    158762    |   170461
       13  | 37:52:62 | 02:48:50 |    170462    |   183111
       14  | 40:41:37 | 03:58:28 |    183112    |   200989
       15  | 44:39:65 | 02:53:10 |    200990    |   213974
       16  | 47:33:00 | 02:11:52 |    213975    |   223851
       17  | 49:44:52 | 01:20:70 |    223852    |   229921
       18  | 51:05:47 | 03:16:08 |    229922    |   244629
       19  | 54:21:55 | 02:43:17 |    244630    |   256871
       20  | 57:04:72 | 03:54:53 |    256872    |   274474
       21  | 60:59:50 | 02:50:25 |    274475    |   287249
       22  | 63:50:00 | 02:33:67 |    287250    |   298791
       23  | 66:23:67 | 02:48:58 |    298792    |   311449
       24  | 69:12:50 | 02:41:37 |    311450    |   323561
       25  | 71:54:12 | 02:35:33 |    323562    |   335219

ADVANCED TOC ANALYSIS (with cdrdao)
...please be patient, this may take a while

Pregap detected for track 1 : 32 sectors
Pregap detected for track 2 : 160 sectors
Pregap detected for track 3 : 168 sectors
Pregap detected for track 4 : 123 sectors
Pregap detected for track 5 : 145 sectors
Pregap detected for track 6 : 138 sectors
Pregap detected for track 7 : 115 sectors
Pregap detected for track 8 : 188 sectors
Pregap detected for track 9 : 162 sectors
Pregap detected for track 10 : 128 sectors
Pregap detected for track 11 : 107 sectors
Pregap detected for track 12 : 127 sectors
Pregap detected for track 13 : 105 sectors
Pregap detected for track 14 : 187 sectors
Pregap detected for track 15 : 198 sectors
Pregap detected for track 16 : 205 sectors
Pregap detected for track 17 : 137 sectors
Pregap detected for track 18 : 155 sectors
Pregap detected for track 19 : 183 sectors
Pregap detected for track 20 : 130 sectors
Pregap detected for track 21 : 158 sectors
Pregap detected for track 22 : 145 sectors
Pregap detected for track 23 : 162 sectors
Pregap detected for track 24 : 180 sectors
Pregap detected for track 25 : 152 sectors

Disc Image

     File name /home/kmk/flac/Various Artists (1991) 25 Blues Evergreens/- 25 Blues Evergreens (1991).flac

     Trial 1: 619 seconds (7.22x)
     Trial 2: 642 seconds (6.96x)
     All chunks matched!

     Peak level 99.4 %
     Trial 1 (Copy) CRC AC2546C8
     Trial 2 (Test) CRC AC2546C8
     Copy OK

     Copy MD5: 563d2a61b890e6309d7feeb112fe9a2e

No errors occurred
Трeклист:
01. John Lee Hooker - I'm In The Mood 2:39
02. Howlin' Wolf - Spoonful 2:39
03. John Mayall - Baby What You Want Me To Do 5:02
04. Muddy Waters - I Got My Mojo Working 4:10
05. Elmore James - Something Inside Of Me 4:47
06. Little Walter - I Got To Find My Baby 2:47
07. Howlin' Wolf - Little Red Rooster 2:25
08. John Lee Hooker - I Wanna Walk 2:08
09. Sonny Boy - Williamson (2) Help Me 3:07
10. Eric Clapton - Snake Drive 2:25
11. B.B. King - Dark Is The Night - Part 1 2:38
12. Jeff Beck - Jeff's Blues 3:02
13. John Mayall - A Big Man 2:58
14. Howlin' Wolf - Highway 49 3:03
15. John Lee Hooker - Crawling King Snake 2:37
16. Little Walter - As Long As I Have You 2:32
17. B.B. King - Every Day I Have The Blues 2:33
18. Howlin' Wolf - Back Door Man 2:49
19. John Lee Hooker - Dimples 2:12
20. B.B. King - Whole Lotta Love 3:05
21. Elmore James - Happy Home 2:43
22. Sonny Boy Williamson - I Never Do Wrong 2:53
23. Howlin' Wolf - Who's Been talking 2:18
24. Muddy Waters - Crawlin' Kingsnake 2:28
25. John Lee Hooker - Ground Hog Blues 2:57

Прoдолжительность: 01:13:51
Код:
Rubyripper version 0.7.0rc2
Website: [url=http://code.google.com/p/rubyripper]http://code.google.com/p/rubyripper[/url]

Rubyripper extraction logfile from:
["Ср 22 июл 2020 08:25:38 MSK\r\n"]

Various Artists / 25 Blues Evergreens

Used drive     : Optiarc DVD RW AD-7243S 1.03   Устройство: /dev/dvdrw

Используемый ripper    : cdparanoia III release 10.2 (September 11, 2008)
Selected options :

Matches required for all chunks       : 2
Matches required for erroneous chunks : 3

Read offset correction                      : 48
Overread into Lead-In and Lead-Out          : Нет
Fill up missing offset samples with silence : Yes
Null samples used in CRC calculations       : Yes

Used output encoder : flac 1.3.3
Selected options      : --best -V

TOC of the extracted CD

     Track |   Start  |  Length  | Start sector | End sector
    ---------------------------------------------------------
        1  | 00:00:33 | 02:41:22 |        33    |    12129
        2  | 02:41:55 | 02:42:13 |     12130    |    24292
        3  | 05:23:68 | 05:03:42 |     24293    |    47059
        4  | 10:27:35 | 04:11:33 |     47060    |    65917
        5  | 14:38:68 | 04:49:65 |     65918    |    87657
        6  | 19:28:58 | 02:48:07 |     87658    |   100264
        7  | 22:16:65 | 02:25:73 |    100265    |   111212
        8  | 24:42:63 | 02:10:67 |    111213    |   121029
        9  | 26:53:55 | 03:09:15 |    121030    |   135219
       10  | 30:02:70 | 02:26:73 |    135220    |   146242
       11  | 32:29:68 | 02:39:67 |    146243    |   158234
       12  | 35:09:60 | 03:04:05 |    158235    |   172039
       13  | 38:13:65 | 03:00:70 |    172040    |   185609
       14  | 41:14:60 | 03:05:20 |    185610    |   199504
       15  | 44:20:05 | 02:39:55 |    199505    |   211484
       16  | 46:59:60 | 02:34:13 |    211485    |   223047
       17  | 49:33:73 | 02:33:65 |    223048    |   234587
       18  | 52:07:63 | 02:49:02 |    234588    |   247264
       19  | 54:56:65 | 02:15:03 |    247265    |   257392
       20  | 57:11:68 | 03:08:00 |    257393    |   271492
       21  | 60:19:68 | 02:45:02 |    271493    |   283869
       22  | 63:04:70 | 02:56:08 |    283870    |   297077
       23  | 66:01:03 | 02:21:05 |    297078    |   307657
       24  | 68:22:08 | 02:30:55 |    307658    |   318962
       25  | 70:52:63 | 02:58:20 |    318963    |   332332

ADVANCED TOC ANALYSIS (with cdrdao)
...please be patient, this may take a while

Pregap detected for track 1 : 33 sectors
Pregap detected for track 2 : 192 sectors
Pregap detected for track 3 : 170 sectors
Pregap detected for track 4 : 80 sectors
Pregap detected for track 5 : 173 sectors
Pregap detected for track 6 : 128 sectors
Pregap detected for track 7 : 160 sectors
Pregap detected for track 8 : 210 sectors
Pregap detected for track 9 : 162 sectors
Pregap detected for track 10 : 145 sectors
Pregap detected for track 11 : 155 sectors
Pregap detected for track 12 : 190 sectors
Pregap detected for track 13 : 132 sectors
Pregap detected for track 14 : 177 sectors
Pregap detected for track 15 : 152 sectors
Pregap detected for track 16 : 136 sectors
Pregap detected for track 17 : 133 sectors
Pregap detected for track 18 : 128 sectors
Pregap detected for track 19 : 145 sectors
Pregap detected for track 20 : 193 sectors
Pregap detected for track 21 : 128 sectors
Pregap detected for track 22 : 127 sectors
Pregap detected for track 23 : 150 sectors
Pregap detected for track 24 : 188 sectors
Pregap detected for track 25 : 150 sectors

Disc Image

     File name /home/kmk/flac/Various Artists (1991) 25 Blues Evergreens/- 25 Blues Evergreens (1991).flac

     Trial 1: 616 seconds (7.19x)
     Trial 2: 639 seconds (6.93x)
     All chunks matched!

     Peak level 100.0 %
     Trial 1 (Copy) CRC FA865FA3
     Trial 2 (Test) CRC FA865FA3
     Copy OK

     Copy MD5: 10304e7c4aae106b1b7298c347558e0b

No errors occurred
Трeклист:
01. B.B. King - paying The Cost To Be The Boss 3:01
02. John Mayall - Why Worry 3:14
03. Lightnin' Hopkins - Coffee For Mama 3:29
04. Howlin' Wolf - You'll Be Mine 2:24
05. Elmore James - Dust My Broom 2:51
06. Muddy Waters - I Just Want To Make Love To You 2:49
07. Little Walter - My Babe 2:33
08. John Lee Hooker - Hobo Blues 2:45
90. Sonny Boy Williamson - Sad To Be Alone 2:55
10. Eric Clapton - Freight Loader 2:33
11. Howlin' Wolf - Tail Dragger 2:55
12. Elmore James - Coming Home 2:23
13. B.B. King - How Blue Can You Get 3:15
14. John Lee Hooker - Trouble Blues 2:51
15. Muddy Waters - I'm Ready 3:01
16. Little Walter - Hate To See You Go 2:15
17. Sonny Boy Williamson - I Wonder Why 1:34
18. Elmore James - Done Somebody Wrong 2:17
19. Howlin' Wolf - Goin' Back Home 2:43
20. John Lee Hooker - I Love You Baby 2:55
21. B.B. King - Outside Help 6:51
22. Little Walter - Take Me Back 3:02
23. Muddy Waters - Walkin' Thru The Park 3:16
24. Elmore James - Can't Stop Lovin' 2:19
25. Sonny Boy Williamson - All My Love In Vain 2:48

Прoдолжительность: 01:14:00
Код:
Rubyripper version 0.7.0rc2
Website: [url=http://code.google.com/p/rubyripper]http://code.google.com/p/rubyripper[/url]

Rubyripper extraction logfile from:
["Ср 22 июл 2020 08:54:43 MSK\r\n"]

Various Artists / 25 Blues Evergreens

Used drive     : Optiarc DVD RW AD-7243S 1.03   Устройство: /dev/dvdrw

Используемый ripper    : cdparanoia III release 10.2 (September 11, 2008)
Selected options :

Matches required for all chunks       : 2
Matches required for erroneous chunks : 3

Read offset correction                      : 48
Overread into Lead-In and Lead-Out          : Нет
Fill up missing offset samples with silence : Yes
Null samples used in CRC calculations       : Yes

Used output encoder : flac 1.3.3
Selected options      : --best -V

TOC of the extracted CD

     Track |   Start  |  Length  | Start sector | End sector
    ---------------------------------------------------------
        1  | 00:00:33 | 03:04:25 |        33    |    13857
        2  | 03:04:58 | 03:15:15 |     13858    |    28497
        3  | 06:19:73 | 03:30:60 |     28498    |    44307
        4  | 09:50:58 | 02:27:22 |     44308    |    55354
        5  | 12:18:05 | 02:53:73 |     55355    |    68402
        6  | 15:12:03 | 02:51:27 |     68403    |    81254
        7  | 18:03:30 | 02:36:50 |     81255    |    93004
        8  | 20:40:05 | 02:46:13 |     93005    |   105467
        9  | 23:26:18 | 02:57:57 |    105468    |   118799
       10  | 26:24:00 | 02:34:68 |    118800    |   130417
       11  | 28:58:68 | 02:58:52 |    130418    |   143819
       12  | 31:57:45 | 02:26:08 |    143820    |   154777
       13  | 34:23:53 | 03:16:67 |    154778    |   169544
       14  | 37:40:45 | 02:48:08 |    169545    |   182152
       15  | 40:28:53 | 03:03:67 |    182153    |   195944
       16  | 43:32:45 | 02:17:08 |    195945    |   206227
       17  | 45:49:53 | 01:36:72 |    206228    |   213499
       18  | 47:26:50 | 02:20:68 |    213500    |   224067
       19  | 49:47:43 | 02:45:72 |    224068    |   236514
       20  | 52:33:40 | 02:57:05 |    236515    |   249794
       21  | 55:30:45 | 06:55:00 |    249795    |   280919
       22  | 62:25:45 | 03:04:60 |    280920    |   294779
       23  | 65:30:30 | 03:20:15 |    294780    |   309794
       24  | 68:50:45 | 02:22:03 |    309795    |   320447
       25  | 71:12:48 | 02:48:22 |    320448    |   333069

ADVANCED TOC ANALYSIS (with cdrdao)
...please be patient, this may take a while

Pregap detected for track 1 : 33 sectors
Pregap detected for track 2 : 185 sectors
Pregap detected for track 3 : 143 sectors
Pregap detected for track 4 : 183 sectors
Pregap detected for track 5 : 192 sectors
Pregap detected for track 6 : 165 sectors
Pregap detected for track 7 : 137 sectors
Pregap detected for track 8 : 217 sectors
Pregap detected for track 9 : 163 sectors
Pregap detected for track 10 : 192 sectors
Pregap detected for track 11 : 140 sectors
Pregap detected for track 12 : 137 sectors
Pregap detected for track 13 : 168 sectors
Pregap detected for track 14 : 190 sectors
Pregap detected for track 15 : 188 sectors
Pregap detected for track 16 : 192 sectors
Pregap detected for track 17 : 160 sectors
Pregap detected for track 18 : 155 sectors
Pregap detected for track 19 : 178 sectors
Pregap detected for track 20 : 192 sectors
Pregap detected for track 21 : 150 sectors
Pregap detected for track 22 : 232 sectors
Pregap detected for track 23 : 165 sectors
Pregap detected for track 24 : 270 sectors
Pregap detected for track 25 : 178 sectors

Disc Image

     File name /home/kmk/flac/Various Artists (1991) 25 Blues Evergreens/- 25 Blues Evergreens (1991).flac

     Trial 1: 616 seconds (7.21x)
     Trial 2: 638 seconds (6.95x)
     All chunks matched!

     Peak level 99.5 %
     Trial 1 (Copy) CRC 260F3F5A
     Trial 2 (Test) CRC 260F3F5A
     Copy OK

     Copy MD5: 7b71d07f673fcacb74b16c8591954d76

No errors occurred
Трeклист:
01. Muddy Waters - Mannisch Boy 2:52
02. Howlin' Wolf - Smokestack Lightnin' 3:03
03. John Mayall - Road Show 2:15
04. John Lee Hooker - Sugar Mama 3:12
05. Elmore James - I Need You 2:45
06. Little Walter - Roller Coaster 2:51
07. B.B. King - Walkin' And Cryin' 3:25
08. Howlin' Wolf - Howlin' For My Baby 2:32
09. Eric Clapton - West Coast Idea 2:16
10. Sonny Boy Williamson - Trust My Baby 2:40
11. John Lee Hooker - Bottle Up & Go 2:26
12. John Mayall - John Lee Boogie 3:10
13. Muddy Waters - You Can't Lose What You Ain't Never Had 3:03
14. John Mayall - Lost And Gone 2:37
15. John Lee Hooker - Frisco 2:39
16. Little Walter - You're So Fine 3:02
17. Sonny Boy Williamson - Keep It To Yourself 2:47
18. B.B. King - Three O'çlock Blues 2:58
19. Muddy Waters - Goin' Home 2:34
20. Howlin' Wolf - Little Baby 2:44
21. Little Walter - Mean Old World 2:53
22. Eric Clapton - Got To Hurry 2:32
23. Sonny Boy Williamson - Stop Crying (All Your Throwing Away Is Mine) 2:31
24. Muddy Waters - Long Distance Call 2:38
25. John Lee Hooker - Wednesday Evening Blues 3:33

Прoдолжительность: 01:10:53
Код:
Rubyripper version 0.7.0rc2
Website: [url=http://code.google.com/p/rubyripper]http://code.google.com/p/rubyripper[/url]

Rubyripper extraction logfile from:
["Ср 22 июл 2020 09:21:24 MSK\r\n"]

Various Artists / 25 Blues Evergreens

Used drive     : Optiarc DVD RW AD-7243S 1.03   Устройство: /dev/dvdrw

Используемый ripper    : cdparanoia III release 10.2 (September 11, 2008)
Selected options :

Matches required for all chunks       : 2
Matches required for erroneous chunks : 3

Read offset correction                      : 48
Overread into Lead-In and Lead-Out          : Нет
Fill up missing offset samples with silence : Yes
Null samples used in CRC calculations       : Yes

Used output encoder : flac 1.3.3
Selected options      : --best -V

TOC of the extracted CD

     Track |   Start  |  Length  | Start sector | End sector
    ---------------------------------------------------------
        1  | 00:00:33 | 02:53:42 |        33    |    13049
        2  | 02:54:00 | 03:05:58 |     13050    |    26982
        3  | 05:59:58 | 02:16:40 |     26983    |    37222
        4  | 08:16:23 | 03:14:62 |     37223    |    51834
        5  | 11:31:10 | 02:45:60 |     51835    |    64269
        6  | 14:16:70 | 02:54:23 |     64270    |    77342
        7  | 17:11:18 | 03:27:15 |     77343    |    92882
        8  | 20:38:33 | 02:33:32 |     92883    |   104389
        9  | 23:11:65 | 02:18:48 |    104390    |   114787
       10  | 25:30:38 | 02:42:32 |    114788    |   126969
       11  | 28:12:70 | 02:28:58 |    126970    |   138127
       12  | 30:41:53 | 03:12:25 |    138128    |   152552
       13  | 33:54:03 | 03:06:05 |    152553    |   166507
       14  | 37:00:08 | 02:38:35 |    166508    |   178392
       15  | 39:38:43 | 02:40:50 |    178393    |   190442
       16  | 42:19:18 | 03:03:55 |    190443    |   204222
       17  | 45:22:73 | 02:49:47 |    204223    |   216944
       18  | 48:12:45 | 03:00:55 |    216945    |   230499
       19  | 51:13:25 | 02:36:18 |    230500    |   242217
       20  | 53:49:43 | 02:46:50 |    242218    |   254717
       21  | 56:36:18 | 02:55:37 |    254718    |   267879
       22  | 59:31:55 | 02:34:50 |    267880    |   279479
       23  | 62:06:30 | 02:33:53 |    279480    |   291007
       24  | 64:40:08 | 02:39:45 |    291008    |   302977
       25  | 67:19:53 | 03:33:40 |    302978    |   318992

ADVANCED TOC ANALYSIS (with cdrdao)
...please be patient, this may take a while

Pregap detected for track 1 : 33 sectors
Pregap detected for track 2 : 82 sectors
Pregap detected for track 3 : 190 sectors
Pregap detected for track 4 : 100 sectors
Pregap detected for track 5 : 142 sectors
Pregap detected for track 6 : 92 sectors
Pregap detected for track 7 : 195 sectors
Pregap detected for track 8 : 170 sectors
Pregap detected for track 9 : 87 sectors
Pregap detected for track 10 : 135 sectors
Pregap detected for track 11 : 110 sectors
Pregap detected for track 12 : 180 sectors
Pregap detected for track 13 : 140 sectors
Pregap detected for track 14 : 183 sectors
Pregap detected for track 15 : 58 sectors
Pregap detected for track 16 : 143 sectors
Pregap detected for track 17 : 113 sectors
Pregap detected for track 18 : 142 sectors
Pregap detected for track 19 : 202 sectors
Pregap detected for track 20 : 128 sectors
Pregap detected for track 21 : 185 sectors
Pregap detected for track 22 : 155 sectors
Pregap detected for track 23 : 145 sectors
Pregap detected for track 24 : 180 sectors
Pregap detected for track 25 : 140 sectors

Disc Image

     File name /home/kmk/flac/Various Artists (1991) 25 Blues Evergreens/- 25 Blues Evergreens (1991).flac

     Trial 1: 585 seconds (7.27x)
     Trial 2: 607 seconds (7.00x)
     All chunks matched!

     Peak level 99.4 %
     Trial 1 (Copy) CRC 8548A37E
     Trial 2 (Test) CRC 8548A37E
     Copy OK

     Copy MD5: 20cc0475c040eb1a23ab4cce49590508

No errors occurred


2020-09-13 16:32
Профиль
  • Торрент
Автор: Admiral Хэш: ---
Добавлен: 2020-09-13 16:32 Приватный: Нет (DHT включён)
Статус: Проверен
Размер: 1.34 ГБ (1 443 149 324 байт)
Изменил:
---
Скачали: 0 (Раздающих: 0%)
Причина:
---
Здоровье: 0%
Сидеров: 0 Личеров: 0
Скорость раздачи: 0 байт/сек Скорость скачивания: 0 байт/сек
Последний сидер: Нет Последний личер: Нет
Для скачивания торрента необходимо зарегистрироваться или войти на трекер.
Показать сообщения за:  Поле сортировки  
Ответить на тему   [ 1 сообщение ] 

Кто сейчас на конференции

Сейчас этот форум просматривают: нет зарегистрированных пользователей и гости: 1


Вы не можете начинать темы
Вы не можете отвечать на сообщения
Вы не можете редактировать свои сообщения
Вы не можете удалять свои сообщения
Вы не можете добавлять вложения

Найти:
Перейти:  
cron
Создано на основе phpBB® Forum Software © phpBB Group
ppkBB3cker v.2.5 © 2008-2021 @ PPK | Icon Theme by Everaldo.com Design Studio
Designed by ST Software.
Русская поддержка phpBB
[ Time : 0.442s | 20 Queries | GZIP : Off ]
Ресурс не предоставляет электронные версии произведений, а занимается лишь коллекционированием и каталогизацией ссылок, присылаемых и публикуемых на форуме нашими читателями. Если вы являетесь правообладателем какого-либо представленного материала и не желаете чтобы ссылка на него находилась в нашем каталоге, свяжитесь с нами и мы незамедлительно удалим её. Файлы для обмена на трекере предоставлены пользователями сайта, и администрация не несёт ответственности за их содержание. Просьба не заливать файлы, защищенные авторскими правами, а также файлы нелегального содержания!
tracker_cron Яндекс.Метрика