Сообщения без ответов | Активные темы Текущее время: 2024-06-22 16:25



Ответить на тему  [ 1 сообщение ] 
По правилам и без / L'innocent (Луи Гаррель) [2022, мелодрама, комедия, криминал, HDRip / A] 
Автор Сообщение
Друг треккера
Друг треккера
Аватара пользователя
Раздал: 13.12 ТБ
Скачал: 11.17 ТБ
Ратио: 1000.474


Зарегистрирован: 2014-09-04 09:24
Сообщения: 6282
Откуда: С планеты Земля
Ответить с цитатой 
#777

По правилам и без / L'innocent


Информация о фильме
Название: По правилам и без
Оригинальное название: L'innocent
Год выпуска: 2022
Страна: Франция
Продолжительность: 01:38:02
Перевод: Авторский (одноголосый закадровый) | Владимир Штейн
Жанр: мелодрама, комедия, криминал

Режиссер: Луи Гаррель / Louis Garrel

В ролях: Луи Гаррель, Рошди Зем, Ноэми Мерлан, Анук Гринбер, Жан-Клод Пото, Янисс Кеббаб, Леа Вяземски, Манда Туре, Olga Amelchenko, Romain Blachier

Описание:
Изо дня в день Абель ведёт экскурсии в океанариуме Лиона, когда его импульсивная мама влюбляется в харизматичного бывшего грабителя. Бдительный Абель на пару с приятельницей тут же начинает слежку за новым маминым бойфрендом. Амбициозных шпионов быстро раскрывает опытный преступник, и делает им предложение, от которого невозможно отказаться....



Сэмпл

Качество видео: HDRip
Формат видео: AVI
Видео: 720x304 (2.37:1), 24.000 fps, XviD build 73 ~1731 kbps avg, 0.33 bit/pixel
Аудио: 48 kHz, AC3 Dolby Digital, 3/2 (L,C,R,l,r) + LFE ch, ~384 kbps
Оригинальная аудиодорожка: нет
Субтитры: нет

Формат : AVI
Формат/Информация : Audio Video Interleave
Размер файла : 1,46 Гбайт
Продолжительность : 1 ч. 38 м.
Общий поток : 2 125 Кбит/сек
Название фильма : По правилам и без_2022_HDRip
Программа кодирования : VirtualDubMod 1.5.10.2 (build 2542/release)
Авторское право : порошков

Видео
Идентификатор : 0
Формат : MPEG-4 Visual
Профиль формата : Advanced Simple@L5
Настройки формата : BVOP1 / Custom Matrix
Параметр BVOP формата : 1
Параметр QPel формата : Нет
Параметр GMC формата : Без точки перехода
Параметр матрицы формата : Выборочная
Идентификатор кодека : XVID
Идентификатор кодека/Подсказка : XviD
Продолжительность : 1 ч. 38 м.
Битрейт : 1 732 Кбит/сек
Ширина : 720 пикселей
Высота : 304 пикселя
Соотношение сторон : 2,35:1
Частота кадров : 24,000 кадра/сек
Цветовое пространство : YUV
Субдискретизация насыщенности : 4:2:0
Битовая глубина : 8 бит
Тип развёртки : Прогрессивная
Метод сжатия : С потерями
Бит/(Пиксели*Кадры) : 0.330
Размер потока : 1,19 Гбайт (81%)
Библиотека кодирования : XviD 73

Аудио
Идентификатор : 1
Формат : AC-3
Формат/Информация : Audio Coding 3
Коммерческое название : Dolby Digital
Идентификатор кодека : 2000
Продолжительность : 1 ч. 38 м.
Вид битрейта : Постоянный
Битрейт : 384 Кбит/сек
Каналы : 6 каналов
Channel layout : L R C LFE Ls Rs
Частота : 48,0 КГц
Частота кадров : 31,250 кадров/сек (1536 SPF)
Метод сжатия : С потерями
Размер потока : 269 Мбайт (18%)
Выравнивание : Разделение по промежуткам
Продолжительность промежутка : 42 мс. (1,00 видеокадр)
Время предзагрузки промежутка : 500 мс.
Service kind : Complete Main



2023-03-07 22:44
Профиль WWW
  • Торрент
Автор: Sovetnik Хэш: ---
Добавлен: 2023-03-07 22:44 Приватный: Нет (DHT включён)
Статус: Проверен
Размер: 1.46 ГБ (1 562 513 408 байт)
Изменил:
---
Скачали: 616 (Раздающих: 0%)
Причина:
---
Здоровье: 100%
Сидеров: 82 Личеров: 17
Скорость раздачи: 0 байт/сек Скорость скачивания: 0 байт/сек
Последний сидер: 5 месяцев 12 дней 20 часов 35 минут 19 секунд назад Последний личер: 5 месяцев 12 дней 20 часов 35 минут 19 секунд назад
Для скачивания торрента необходимо зарегистрироваться или войти на трекер.
Показать сообщения за:  Поле сортировки  
Ответить на тему   [ 1 сообщение ] 

Кто сейчас на конференции

Сейчас этот форум просматривают: нет зарегистрированных пользователей и гости: 5


Вы не можете начинать темы
Вы не можете отвечать на сообщения
Вы не можете редактировать свои сообщения
Вы не можете удалять свои сообщения
Вы не можете добавлять вложения

Найти:
Перейти:  
Создано на основе phpBB® Forum Software © phpBB Group
ppkBB3cker v.2.5 © 2008-2021 @ PPK | Icon Theme by Everaldo.com Design Studio
Designed by ST Software.
Русская поддержка phpBB
[ Time : 0.812s | 18 Queries | GZIP : Off ]
Ресурс не предоставляет электронные версии произведений, а занимается лишь коллекционированием и каталогизацией ссылок, присылаемых и публикуемых на форуме нашими читателями. Если вы являетесь правообладателем какого-либо представленного материала и не желаете чтобы ссылка на него находилась в нашем каталоге, свяжитесь с нами и мы незамедлительно удалим её. Файлы для обмена на трекере предоставлены пользователями сайта, и администрация не несёт ответственности за их содержание. Просьба не заливать файлы, защищенные авторскими правами, а также файлы нелегального содержания!
tracker_cron Яндекс.Метрика