Сообщения без ответов | Активные темы Текущее время: 2024-06-22 15:55



Ответить на тему  [ 1 сообщение ] 
Оккупация: миссия «Дождь» / Occupation: Rainfall (Люк Спарк) [2020, фантастика, боевик, BDRip-AVC / iTunes] 
Автор Сообщение
Гл. Модератор
Гл. Модератор
Аватара пользователя
Раздал: 1.11 ТБ
Скачал: 591.69 ГБ
Ратио: 1002.319


Зарегистрирован: 2016-08-18 10:11
Сообщения: 3726
Ответить с цитатой 
#777

Оккупация: миссия «Дождь» / Occupation: Rainfall


Информация о фильме
Год выпуска: 2020
Страна: Австралия
Студия: Occupation Two Productions
Продолжительность: 02:08:17
Перевод: Дублированный | iTunes
Жанр: фантастика, боевик

Режиссер: Люк Спарк

В ролях: Дэниэл Юинг, Темуэра Моррисон, Дэниэл Гиллис, Лоуренс Макор, Захари Гарред, Джет Трантер, Марк Коулз Смит, Тристан Гоу, Кен Жонг, Джейсон Айзекс

О фильме:
Прошло два года после инопланетного вторжения. Пришельцам удалось уничтожить практически всё человечество, но Сидней ещё не повержен — выжившие и примкнувшие к ним инакомыслящие инопланетяне продолжают отчаянно сражаться, но их силы на исходе. Тем временем небольшая группа людей узнает о заговоре, который может положить конец войне...



Качество: BDRip-AVC
Формат: MKV
Видео: MPEG-4 AVC, 1024x426 (2,40:1), 23,976 fps, 1246 Kbit/s (0.119 bit/pixel)
Аудио: русский, AC3, 5.1, 48 kHz, 384 kbps | iTunes
Навигация по главам: есть
Субтитры: Русские | Forced

Общее
Уникальный идентификатор : 229415484979507749691614998527744617400 (0xAC97D0B2714323DCB33B6DB04FA72BB8)
Полное имя : G:GFOccupation.Rainfall.2020.BDRip.AVC.Rip.by.HardwareMining.R.G.Generalfilm.mkv
Формат : Matroska
Версия формата : Version 4
Размер файла : 1,46 Гбайт
Продолжительность : 2 ч. 8 м.
Общий поток : 1 632 Кбит/сек
Название фильма : Occupation.Rainfall.2020.BDRip.AVC.Rip.by.HardwareMining.R.G.Generalfilm
Дата кодирования : UTC 2022-06-01 14:06:53
Программа кодирования : mkvmerge v6.8.0 ('Theme for Great Cities') 64bit built on Mar 2 2014 21:34:26
Библиотека кодирования : libebml v1.3.0 + libmatroska v1.4.1
Обложка : Yes
Attachments : cover.png

Видео
Идентификатор : 1
Формат : AVC
Формат/Информация : Advanced Video Codec
Профиль формата : High@L4.1
Настройки формата : CABAC / 9 Ref Frames
Параметр CABAC формата : Да
Параметр RefFrames формата : 9 кадров
Идентификатор кодека : V_MPEG4/ISO/AVC
Продолжительность : 2 ч. 8 м.
Битрейт : 1 246 Кбит/сек
Ширина : 1 024 пикселя
Высота : 426 пикселей
Соотношение сторон : 2,40:1
Режим частоты кадров : Постоянный
Частота кадров : 23,976 (24000/1001) кадра/сек
Цветовое пространство : YUV
Субдискретизация насыщенности : 4:2:0
Битовая глубина : 8 бит
Тип развёртки : Прогрессивная
Бит/(Пиксели*Кадры) : 0.119
Размер потока : 1,09 Гбайт (74%)
Библиотека кодирования : x264 core 148 r2638 7599210
Настройки программы : cabac=1 / ref=9 / deblock=1:-2:-1 / analyse=0x3:0x113 / me=umh / subme=10 / psy=1 / psy_rd=0.00:0.15 / mixed_ref=1 / me_range=32 / chroma_me=1 / trellis=2 / 8x8dct=1 / cqm=0 / deadzone=21,11 / fast_pskip=0 / chroma_qp_offset=-3 / threads=6 / lookahead_threads=1 / sliced_threads=0 / nr=0 / decimate=0 / interlaced=0 / bluray_compat=0 / constrained_intra=0 / bframes=10 / b_pyramid=2 / b_adapt=2 / b_bias=0 / direct=1 / weightb=1 / open_gop=0 / weightp=2 / keyint=240 / keyint_min=23 / scenecut=40 / intra_refresh=0 / rc_lookahead=40 / rc=2pass / mbtree=0 / bitrate=1246 / ratetol=1.0 / qcomp=0.65 / qpmin=0 / qpmax=69 / qpstep=4 / cplxblur=20.0 / qblur=0.5 / vbv_maxrate=50000 / vbv_bufsize=65500 / nal_hrd=none / filler=0 / ip_ratio=1.40 / pb_ratio=1.30 / aq=1:2.00
Язык : English
Default : Да
Forced : Нет

Аудио
Идентификатор : 2
Формат : AC-3
Формат/Информация : Audio Coding 3
Коммерческое название : Dolby Digital
Идентификатор кодека : A_AC3
Продолжительность : 2 ч. 8 м.
Вид битрейта : Постоянный
Битрейт : 384 Кбит/сек
Каналы : 6 каналов
Channel layout : L R C LFE Ls Rs
Частота : 48,0 КГц
Частота кадров : 31,250 кадров/сек (1536 SPF)
Метод сжатия : С потерями
Размер потока : 352 Мбайт (24%)
Заголовок : iTunes
Язык : Russian
Service kind : Complete Main
Default : Да
Forced : Да

Текст
Идентификатор : 3
Формат : UTF-8
Идентификатор кодека : S_TEXT/UTF8
Идентификатор кодека/Информация : UTF-8 Plain Text
Заголовок : Forced
Язык : Russian
Default : Да
Forced : Да

Меню
00:00:00.000 : en:Chapter 01
00:12:24.535 : en:Chapter 02
00:20:19.009 : en:Chapter 03
00:31:39.648 : en:Chapter 04
00:38:53.706 : en:Chapter 05
00:49:36.974 : en:Chapter 06
00:59:38.700 : en:Chapter 07
01:13:27.528 : en:Chapter 08
01:27:06.471 : en:Chapter 09
01:39:08.860 : en:Chapter 10
01:49:48.540 : en:Chapter 11
02:01:42.670 : en:Chapter 12



2023-03-12 00:07
Профиль
  • Торрент
Автор: Samara Хэш: ---
Добавлен: 2023-03-12 00:07 Приватный: Нет (DHT включён)
Статус: Проверен
Размер: 1.46 ГБ (1 570 369 027 байт)
Изменил:
---
Скачали: 28 (Раздающих: 0%)
Причина:
---
Здоровье: 100%
Сидеров: 12 Личеров: 1
Скорость раздачи: 0 байт/сек Скорость скачивания: 0 байт/сек
Последний сидер: 4 месяца 17 дней 20 часов 44 минуты 14 секунд назад Последний личер: 4 месяца 17 дней 20 часов 44 минуты 14 секунд назад
Для скачивания торрента необходимо зарегистрироваться или войти на трекер.
Показать сообщения за:  Поле сортировки  
Ответить на тему   [ 1 сообщение ] 

Кто сейчас на конференции

Сейчас этот форум просматривают: нет зарегистрированных пользователей и гости: 3


Вы не можете начинать темы
Вы не можете отвечать на сообщения
Вы не можете редактировать свои сообщения
Вы не можете удалять свои сообщения
Вы не можете добавлять вложения

Найти:
Перейти:  
Создано на основе phpBB® Forum Software © phpBB Group
ppkBB3cker v.2.5 © 2008-2021 @ PPK | Icon Theme by Everaldo.com Design Studio
Designed by ST Software.
Русская поддержка phpBB
[ Time : 0.708s | 18 Queries | GZIP : Off ]
Ресурс не предоставляет электронные версии произведений, а занимается лишь коллекционированием и каталогизацией ссылок, присылаемых и публикуемых на форуме нашими читателями. Если вы являетесь правообладателем какого-либо представленного материала и не желаете чтобы ссылка на него находилась в нашем каталоге, свяжитесь с нами и мы незамедлительно удалим её. Файлы для обмена на трекере предоставлены пользователями сайта, и администрация не несёт ответственности за их содержание. Просьба не заливать файлы, защищенные авторскими правами, а также файлы нелегального содержания!
tracker_cron Яндекс.Метрика